Ты - мне, я - тебе (Александр Серый) [1976, эксцентрическая комедия, DVDRip-AVC]

 
Автор Сообщение

reversefile ®

Пол:

Стаж: 4 года 5 месяцев

Сообщений: 842

Откуда: ReverseFile.org



Награды: Нет

Торрент-статистика

Создавать темы 11-Авг-2014 06:24

[Цитировать]

Ты - мне, я - тебе
Жанр: эксцентрическая комедия
Год выпуска: 1976
Продолжительность: 01:21:45
Режиссёр: Александр Серый
В ролях: Леонид Куравлев, Евгений Шутов, Татьяна Пельтцер, Светлана Светличная, Юрий Медведев, Илья Рутберг, Роман Ткачук, Валерий Носик, Валентина Карева, Алла Мещерякова
Описание: Что такое «хороший человек»? Тот, кто хорош, выгоден, лично для тебя, — считает банщик Ваня Кашкин. И для таких «ценных клиентов» он всегда рад стараться. Ты – мне, я – тебе... В процессе этого обмена Ваня чуть совесть не променял. Но, к счастью, вовремя спохватился...
Качество видео: DVDRip-AVC
Формат видео: MKV
Видео: 720x384@768х384, 25.000 fps, AVC, ~2372 Kbps
Аудио: 48 kHz, AC3 Dolby Digital, 2 ch, 192 kbps

MediaInfo

raw [info]: 720x384p 16:15 @ 25/1 fps (cfr)
x264 [info]: using SAR=16/15
x264 [info]: using cpu capabilities: MMX2 SSE2Fast SSSE3 SSE4.2 AVX
x264 [info]: profile High, level 4.1
x264 [info]: frame I:750 Avg QP:15.40 size: 55315
x264 [info]: frame P:28378 Avg QP:18.03 size: 24959
x264 [info]: frame B:93511 Avg QP:20.33 size: 7536-Общее
Уникальный идентификатор : 175527132697510851324243110991817706693 (0x840D4BCCA6539954A0E3D1D502B98CC5)
Полное имя : D:\Ты мне, я тебе_1976-DVDRip-AVC.mkv
Формат : Matroska
Версия формата : Version 2
Размер файла : 1,47 Гбайт
Продолжительность : 1 ч. 21 м.
Общий поток : 2566 Кбит/сек
Дата кодирования : UTC 2014-04-14 14:44:24
Программа кодирования : mkvmerge v5.1.0 ('And so it goes') built on Nov 28 2011 23:58:28
Библиотека кодирования : libebml v1.2.3 + libmatroska v1.3.0
Видео
Идентификатор : 1
Формат : AVC
Формат/Информация : Advanced Video Codec
Профиль формата : High@L4.1
Параметр CABAC формата : Да
Параметр ReFrames формата : 14 кадров
Идентификатор кодека : V_MPEG4/ISO/AVC
Продолжительность : 1 ч. 21 м.
Битрейт : 2372 Кбит/сек
Ширина : 720 пикселей
Высота : 384 пикселя
Соотношение сторон : 2,000
Режим частоты кадров : Постоянный
Частота кадров : 25,000 кадров/сек
Цветовое пространство : YUV
Субдискретизация насыщенности : 4:2:0
Битовая глубина : 8 бит
Тип развёртки : Прогрессивная
Бит/(Пиксели*Кадры) : 0.343
Размер потока : 1,33 Гбайт (91%)
Библиотека кодирования : x264 core 142 r2409 d6b4e63
Настройки программы : cabac=1 / ref=14 / deblock=1:-2:-2 / analyse=0x3:0x133 / me=umh / subme=11 / psy=1 / psy_rd=0.90:0.05 / mixed_ref=1 / me_range=24 / chroma_me=1 / trellis=2 / 8x8dct=1 / cqm=0 / deadzone=21,11 / fast_pskip=0 / chroma_qp_offset=-3 / threads=12 / lookahead_threads=2 / sliced_threads=0 / nr=0 / decimate=0 / interlaced=0 / bluray_compat=0 / constrained_intra=0 / bframes=8 / b_pyramid=2 / b_adapt=2 / b_bias=0 / direct=3 / weightb=1 / open_gop=0 / weightp=2 / keyint=250 / keyint_min=25 / scenecut=40 / intra_refresh=0 / rc_lookahead=60 / rc=2pass / mbtree=1 / bitrate=2372 / ratetol=1.0 / qcomp=0.70 / qpmin=0 / qpmax=39 / qpstep=4 / cplxblur=20.0 / qblur=0.5 / ip_ratio=1.30 / aq=1:0.90
Язык : English
Default : Да
Forced : Нет
Основные цвета : BT.601 PAL
Характеристики трансфера : BT.470 System B, BT.470 System G
Коэффициенты матрицы : BT.601
Аудио
Идентификатор : 2
Формат : AC-3
Формат/Информация : Audio Coding 3
Расширение режима : CM (complete main)
Параметр Endianness формата : Big
Идентификатор кодека : A_AC3
Продолжительность : 1 ч. 21 м.
Вид битрейта : Постоянный
Битрейт : 192 Кбит/сек
Каналы : 2 канала
Расположение каналов : Front: L R
Частота : 48,0 КГц
Битовая глубина : 16 бит
Метод сжатия : С потерями
Размер потока : 112 Мбайт (7%)
Язык : Russian
Default : Да
Forced : Нет
[Профиль] [ЛС]

Создавать темы 06-Авг-2015 22:03 (спустя 11 месяцев 26 дней)

Топик был перенесен из форума Кино СССР в форум Кино СССР
sergej644
 
Кто просматривает тему:

Показать сообщения:    

Текущее время: Сегодня 16:23

Часовой пояс: GMT



Вы не можете начинать темы
Вы не можете отвечать на сообщения
Вы не можете редактировать свои сообщения
Вы не можете удалять свои сообщения
Вы не можете голосовать в опросах
Вы не можете прикреплять файлы к сообщениям
Вы не можете скачивать файлы