Ты и я / Io e te (Бернардо Бертолуччи / Bernardo Bertolucci) [2012, Италия, драма, семейный, BDRip 720p] DVO (R5) + Original Ita + subs (rus, eng)

 
Автор Сообщение

reversefile ®

Пол:

Стаж: 4 года 5 месяцев

Сообщений: 842

Откуда: ReverseFile.org



Награды: Нет

Торрент-статистика

Создавать темы 21-Июл-2014 18:13

[Цитировать]

Ты и я / Io e te- Год выпуска: 2012
Выпущено: Италия
Жанр: драма, семейный
Продолжительность: 01:36:15
Перевод: Профессиональный (двухголосый, закадровый) R5, Кармен Видео
Оригинальная звуковая дорожка: Italian
Субтитры: Russian, English-Режиссер: Бернардо Бертолуччи / Bernardo Bertolucci
В ролях: Теа Фалько, Якопо Ольмо Антинори, Соня Бергамаско, Вероника Лазар, Томмазо Раньо, Пиппо Дельбонно, Родольфо Корсато, Франческа Де Мартини, Antonio Etzi, Кристина Онори
О фильме: Четырнадцатилетний интроверт Лоренцо сторонится сверстников, не находит общего языка с родителями. Когда весь класс отправляется на экскурсию в горы, парень сбегает и запирается в подвале собственного дома, чтобы побыть в одиночестве. Неожиданно для Лоренцо в доме появляется очень необычная девушка, которая загадочным образом оказывается связанной с мальчиком и его семьей.
TayTO!
Релиз: by madoff
Формат: MKV
Видео: 1280x692 at 23.976 fps, x264, ~6208 kbps avg
Аудио #01: Russian: 48 kHz, AC3, 3/2 (L,C,R,l,r) + LFE ch, ~384.00 kbps avg |Двухголосый закадровый, R5, Кармен Видео|
Аудио #02: Italian: 48 kHz/16-bit, DTS, 3/2 (L,C,R,l,r) + LFE ch, ~1509.00 kbps avg
Семпл-

Скриншоты



-

mInfo

Формат : Matroska
Версия формата : Version 2
Размер файла : 5,55 Гбайт
Продолжительность : 1 ч. 36 м.
Общий поток : 8259 Кбит/сек
Название фильма : Me and You (2012) - Release for HDCLUB
Дата кодирования : UTC 2014-06-17 08:01:57
Программа кодирования : mkvmerge v5.7.0 ('The Whirlwind') built on Jul 8 2012 20:08:51
Библиотека кодирования : libebml v1.2.3 + libmatroska v1.3.0
Видео
Идентификатор : 1
Формат : AVC
Формат/Информация : Advanced Video Codec
Профиль формата : High@L4.1
Параметр CABAC формата : Да
Параметр ReFrames формата : 9 кадров
Идентификатор кодека : V_MPEG4/ISO/AVC
Продолжительность : 1 ч. 36 м.
Битрейт : 6201 Кбит/сек
Ширина : 1280 пикселей
Высота : 692 пикселя
Соотношение сторон : 1,85:1
Режим частоты кадров : Постоянный
Частота кадров : 24,000 кадра/сек
Цветовое пространство : YUV
Субдискретизация насыщенности : 4:2:0
Битовая глубина : 8 бит
Тип развёртки : Прогрессивная
Бит/(Пиксели*Кадры) : 0.292
Размер потока : 4,17 Гбайт (75%)
Библиотека кодирования : x264 core 133 r2334 a3ac64b
Настройки программы : cabac=1 / ref=9 / deblock=1:-3:-3 / analyse=0x3:0x133 / me=tesa / subme=11 / psy=1 / psy_rd=1.00:0.00 / mixed_ref=1 / me_range=16 / chroma_me=1 / trellis=2 / 8x8dct=1 / cqm=0 / deadzone=21,11 / fast_pskip=0 / chroma_qp_offset=-2 / threads=12 / lookahead_threads=2 / sliced_threads=0 / nr=0 / decimate=1 / interlaced=0 / bluray_compat=0 / constrained_intra=0 / bframes=7 / b_pyramid=2 / b_adapt=2 / b_bias=0 / direct=3 / weightb=1 / open_gop=0 / weightp=2 / keyint=250 / keyint_min=24 / scenecut=40 / intra_refresh=0 / rc=crf / mbtree=0 / crf=16.9 / qcomp=0.75 / qpmin=0 / qpmax=69 / qpstep=4 / ip_ratio=1.40 / pb_ratio=1.30 / aq=1:0.75
Язык : Italian
Default : Да
Forced : Нет
Коэффициенты матрицы : BT.709
Аудио #1
Идентификатор : 2
Формат : AC-3
Формат/Информация : Audio Coding 3
Расширение режима : CM (complete main)
Параметр Endianness формата : Big
Идентификатор кодека : A_AC3
Продолжительность : 1 ч. 36 м.
Вид битрейта : Постоянный
Битрейт : 384 Кбит/сек
Каналы : 6 каналов
Расположение каналов : Front: L C R, Side: L R, LFE
Частота : 48,0 КГц
Битовая глубина : 16 бит
Метод сжатия : С потерями
Размер потока : 264 Мбайт (5%)
Язык : Russian
Default : Да
Forced : Нет
Аудио #2
Идентификатор : 3
Формат : DTS
Формат/Информация : Digital Theater Systems
Режим : 16
Параметр Endianness формата : Big
Идентификатор кодека : A_DTS
Продолжительность : 1 ч. 36 м.
Вид битрейта : Постоянный
Битрейт : 1509 Кбит/сек
Каналы : 6 каналов
Расположение каналов : Front: L C R, Side: L R, LFE
Частота : 48,0 КГц
Битовая глубина : 24 бит
Метод сжатия : С потерями
Размер потока : 1,01 Гбайт (18%)
Язык : Italian
Default : Нет
Forced : Нет
Текст #1
Идентификатор : 4
Формат : UTF-8
Идентификатор кодека : S_TEXT/UTF8
Идентификатор кодека/Информация : UTF-8 Plain Text
Язык : Russian
Default : Нет
Forced : Нет
Текст #2
Идентификатор : 5
Формат : UTF-8
Идентификатор кодека : S_TEXT/UTF8
Идентификатор кодека/Информация : UTF-8 Plain Text
Язык : English
Default : Нет
Forced : Нет
Меню
00:00:00.000 : en:00:00:00.000
00:07:26.833 : en:00:07:26.833
00:15:30.292 : en:00:15:30.292
00:24:06.500 : en:00:24:06.500
00:31:58.875 : en:00:31:58.875
00:39:59.000 : en:00:39:59.000
00:47:22.958 : en:00:47:22.958
00:55:17.583 : en:00:55:17.583
01:04:33.208 : en:01:04:33.208
01:11:32.917 : en:01:11:32.917
01:19:08.583 : en:01:19:08.583
01:32:32.583 : en:01:32:32.583

-
* Сохранены оригинальные чаптеры как на Blu-ray.
* За ремукс спасибо alextar
[Профиль] [ЛС]
Кто просматривает тему:

Показать сообщения:    

Текущее время: Сегодня 05:01

Часовой пояс: GMT



Вы не можете начинать темы
Вы не можете отвечать на сообщения
Вы не можете редактировать свои сообщения
Вы не можете удалять свои сообщения
Вы не можете голосовать в опросах
Вы не можете прикреплять файлы к сообщениям
Вы не можете скачивать файлы