Ты бывала на луне? / Sei mai stata sulla luna? (Паоло Дженовезе / Paolo Genovese) [2015, Италия, Комедия, HDRip] VO (Lord32x)

 
Автор Сообщение

TorrentFilm ®

Пол:

Стаж: 2 года

Сообщений: 7741



Награды: Нет

Торрент-статистика

Создавать темы 08-Дек-2015 00:11

[Цитировать]

-Ты бывала на луне? / Sei mai stata sulla luna?-Страна: Италия
Жанр: Комедия
Год выпуска: 2015
Продолжительность: 01:55:19-Перевод: Lirik
Озвучивание: Одноголосое закадровое [Lord32x]
Cубтитры: нет
Режиссер: Паоло Дженовезе / Paolo Genovese-В ролях: Рауль Бова, Джулия Микелини, Серджио Рубини, Лиз Солари, Анна Резан Крицели, Роландо Равелло, Дино Аббрешия, Нино Фрассика, Нери Маркоре, Сабрина Импаччииаторе, Пьетро Сермонти, Паоло Сассанелли, Эмилио Солфрицци, Миа Бенедетта, Изабелла Бриганти-Описание: Гуйя — тридцатилетняя незамужняя женщина, довольная своей жизнью: у нее интересная и разнообразная работа, позволяющая путешествовать и вести роскошное существование в Милане и Париже. Она убеждена, что имеет все необходимое для счастья, но встретив Ренцо, обаятельного апулийского фермера, понимает, что, хотя у нее и есть жених, но любви ей не хватает.-Сэмпл: http://multi-up.com/1078129-Качество видео: HDRip
Формат видео: AVI
Видео: 720x304 (2.35:1), 24.000 fps, XviD build 50 ~1456 kbps avg, 0.271 bit/pixel
Аудио: 48 kHz, AC3 Dolby Digital, 3/2 (L,C,R,l,r) + LFE ch, ~384 kbps-

MediaInfo

General
Complete name : D:\ОЗВУЧКА\Релизы\Sei.Mai.Stata.Sulla.Luna.2015\Sei.Mai.Stata.Sulla.Luna.2015.HDRip.1500MB.Lord32x.avi
Format : AVI
Format/Info : Audio Video Interleave
File size : 1.47 GiB
Duration : 1h 55mn
Overall bit rate : 1 819 Kbps
Writing application : VirtualDubMod 1.5.10.3 | www.virtualdub-fr.org || (build 2550/release)
Writing library : VirtualDubMod build 2550/release
Video
ID : 0
Format : MPEG-4 Visual
Format profile : Advanced Simple@L5
Format settings, BVOP : 1
Format settings, QPel : No
Format settings, GMC : No warppoints
Format settings, Matrix : Default (H.263)
Codec ID : XVID
Codec ID/Hint : XviD
Duration : 1h 55mn
Bit rate : 1 426 Kbps
Width : 720 pixels
Height : 304 pixels
Display aspect ratio : 2.35:1
Frame rate : 24.000 fps
Color space : YUV
Chroma subsampling : 4:2:0
Bit depth : 8 bits
Scan type : Progressive
Compression mode : Lossy
Bits/(Pixel*Frame) : 0.271
Stream size : 1.15 GiB (78%)
Writing library : XviD 1.2.1 (UTC 2008-12-04)
Audio
ID : 1
Format : AC-3
Format/Info : Audio Coding 3
Mode extension : CM (complete main)
Format settings, Endianness : Big
Codec ID : 2000
Duration : 1h 55mn
Bit rate mode : Constant
Bit rate : 384 Kbps
Channel(s) : 6 channels
Channel positions : Front: L C R, Side: L R, LFE
Sampling rate : 48.0 KHz
Compression mode : Lossy
Stream size : 317 MiB (21%)
Alignment : Split accross interleaves
Interleave, duration : 42 ms (1.00 video frame)
Interleave, preload duratio : 500 ms

Скриншот c названием фильма

Скриншоты

[Профиль] [ЛС]
Кто просматривает тему:

Показать сообщения:    

Текущее время: Сегодня 06:23

Часовой пояс: GMT



Вы не можете начинать темы
Вы не можете отвечать на сообщения
Вы не можете редактировать свои сообщения
Вы не можете удалять свои сообщения
Вы не можете голосовать в опросах
Вы не можете прикреплять файлы к сообщениям
Вы не можете скачивать файлы