Ты бывала на луне? / Sei mai stata sulla luna? (2015) BDRip 1080p от KinoRay & Lord32x Studio | L1

 
Автор Сообщение

достали все ®

Пол:

Стаж: 1 год 8 месяцев

Сообщений: 6581



Награды: 12 (Подробнее)

Mega Seeder 4 (Количество: 1) Top Releaser 4 (Количество: 1) Mega Releaser 3 (Количество: 1)
Торрент-статистика

Создавать темы 02-Дек-2015 22:31

[Цитировать]

Информация о фильме
Название: Ты бывала на луне?
Оригинальное название: Sei mai stata sulla luna?
Год выпуска: 2015
Жанр: Комедия
Режиссер: Паоло Дженовезе
В ролях: Рауль Бова, Джулия Микелини, Серджо Рубини, Лиз Солари, Анна Резан Крицели, Роландо Равелло, Дино Аббрешия, Нино Фрассика, Нери Маркоре, Сабрина Импаччииаторе, Пьетро Сермонти, Паоло Сассанелли, Эмилио Солфрицци, Миа Бенедетта, Изабелла Бриганти
О фильме: Гуйя — тридцатилетняя незамужняя женщина, довольная своей жизнью: у нее интересная и разнообразная работа, позволяющая путешествовать и вести роскошное существование в Милане и Париже. Она убеждена, что имеет все необходимое для счастья, но встретив Ренцо, обаятельного апулийского фермера, понимает, что, хотя у нее и есть жених, но любви ей не хватает.

Страна: Италия
Студия: Apulia Film Commission, Ministero per i Beni e le Attività Culturali, Pepito Produzioni, Rai Cinema, Regione Puglia, Unipol
Продолжительность: 01:55:19
Перевод: Любительский одноголосый (Lord32x Studio)
Дата релиза: 02.12.2015
Файл
Кодек: MPEG-4 AVC
Качество: BDRip (1080p)
Видео: 8500 Кбит/с, 1920x804
Звук: Русский (АС3, 6 ch, 384 Кбит/с), итальянский (DTS-HD MA, 6 ch, 1344 Кбит/с), (АС3, 6 ch, 640 Кбит/с)
Субтитры: Итальянские

Скриншоты

Тех данные

General
Unique ID : 207252504103921973504060996714413543889 (0x9BEB615FF2A70F62A95C5B508B15D1D1)
Complete name : D:ОЗВУЧКАРелизыSei.Mai.Stata.Sulla.Luna.2015KinoRay.Sei.Mai.Stata.Sulla.Luna.2015.BDRip.1080p.Lord32x.Studio.mkv
Format : Matroska
Format version : Version 2
File size : 8.75 GiB
Duration : 1h 55mn
Overall bit rate mode : Variable
Overall bit rate : 10.9 Mbps
Encoded date : UTC 2015-12-02 16:47:35
Writing application : mkvmerge v7.8.0 ('River Man') 32bit built on Apr 3 2015 12:11:22
Writing library : libebml v1.3.1 + libmatroska v1.4.2
Attachements : Cover.jpg
DURATION : 01:49:02.124000000
NUMBER_OF_FRAMES : 1127
NUMBER_OF_BYTES : 44609
_STATISTICS_WRITING_APP : mkvmerge v7.8.0 ('River Man') 32bit built on Mar 27 2015 16:18:02
_STATISTICS_WRITING_DATE_UT : 2015-05-08 08:26:41
_STATISTICS_TAGS : BPS DURATION NUMBER_OF_FRAMES NUMBER_OF_BYTES
Video
ID : 1
Format : AVC
Format/Info : Advanced Video Codec
Format profile : High@L4.1
Format settings, CABAC : Yes
Format settings, ReFrames : 5 frames
Codec ID : V_MPEG4/ISO/AVC
Duration : 1h 55mn
Bit rate mode : Variable
Bit rate : 8 500 Kbps
Maximum bit rate : 62.5 Mbps
Width : 1 920 pixels
Height : 804 pixels
Display aspect ratio : 2.40:1
Frame rate mode : Constant
Frame rate : 24.000 fps
Color space : YUV
Chroma subsampling : 4:2:0
Bit depth : 8 bits
Scan type : Progressive
Bits/(Pixel*Frame) : 0.229
Stream size : 6.67 GiB (76%)
Writing library : x264 core 146 r2538 121396c
Encoding settings : cabac=1 / ref=5 / deblock=1:0:0 / analyse=0x3:0x113 / me=umh / subme=8 / psy=1 / psy_rd=1.00:0.00 / mixed_ref=1 / me_range=16 / chroma_me=1 / trellis=1 / 8x8dct=1 / cqm=0 / deadzone=21,11 / fast_pskip=1 / chroma_qp_offset=-2 / threads=12 / lookahead_threads=2 / sliced_threads=0 / nr=0 / decimate=1 / interlaced=0 / bluray_compat=0 / constrained_intra=0 / bframes=3 / b_pyramid=0 / b_adapt=2 / b_bias=0 / direct=3 / weightb=1 / open_gop=0 / weightp=2 / keyint=240 / keyint_min=24 / scenecut=40 / intra_refresh=0 / rc_lookahead=50 / rc=2pass / mbtree=1 / bitrate=8500 / ratetol=1.0 / qcomp=0.60 / qpmin=0 / qpmax=69 / qpstep=4 / cplxblur=20.0 / qblur=0.5 / vbv_maxrate=62500 / vbv_bufsize=62500 / nal_hrd=vbr / filler=0 / ip_ratio=1.40 / aq=1:1.00
Default : Yes
Forced : No
Audio #1
ID : 2
Format : AC-3
Format/Info : Audio Coding 3
Mode extension : CM (complete main)
Format settings, Endianness : Big
Codec ID : A_AC3
Duration : 1h 55mn
Bit rate mode : Constant
Bit rate : 384 Kbps
Channel(s) : 6 channels
Channel positions : Front: L C R, Side: L R, LFE
Sampling rate : 48.0 KHz
Compression mode : Lossy
Stream size : 317 MiB (4%)
Title : Lord32x
Language : Russian
Default : Yes
Forced : Yes
Audio #2
ID : 3
Format : DTS
Format/Info : Digital Theater Systems
Mode : 16
Format settings, Endianness : Big
Codec ID : A_DTS
Duration : 1h 55mn
Bit rate mode : Constant
Bit rate : 1 344 Kbps
Channel(s) : 6 channels
Channel positions : Front: L C R, Side: L R, LFE
Sampling rate : 48.0 KHz
Bit depth : 24 bits
Compression mode : Lossy
Stream size : 1.08 GiB (12%)
Title : Original
Language : Italian
Default : No
Forced : No
Audio #3
ID : 4
Format : AC-3
Format/Info : Audio Coding 3
Mode extension : CM (complete main)
Format settings, Endianness : Big
Codec ID : A_AC3
Duration : 1h 55mn
Bit rate mode : Constant
Bit rate : 640 Kbps
Channel(s) : 6 channels
Channel positions : Front: L C R, Side: L R, LFE
Sampling rate : 48.0 KHz
Compression mode : Lossy
Stream size : 528 MiB (6%)
Title : Original
Language : Italian
Default : No
Forced : No
Text
ID : 5
Format : UTF-8
Codec ID : S_TEXT/UTF8
Codec ID/Info : UTF-8 Plain Text
Language : Italian
Default : No
Forced : No
Menu
00:00:00.000 : en:00:00:00.000
00:08:28.417 : en:00:08:28.417
00:16:40.750 : en:00:16:40.750
00:20:32.542 : en:00:20:32.542
00:35:43.250 : en:00:35:43.250
00:44:04.833 : en:00:44:04.833
00:50:39.542 : en:00:50:39.542
00:54:51.708 : en:00:54:51.708
01:09:35.167 : en:01:09:35.167
01:14:45.667 : en:01:14:45.667
01:24:59.417 : en:01:24:59.417
01:31:53.458 : en:01:31:53.458
Озвучивание: Любительский одноголосый (Lord32x Studio)
Состав дикторов: Lord32x
Фильм перевёла: Lirik
Релиз от:
[Профиль] [ЛС]
Кто просматривает тему:

Показать сообщения:    

Текущее время: Сегодня 12:12

Часовой пояс: GMT



Вы не можете начинать темы
Вы не можете отвечать на сообщения
Вы не можете редактировать свои сообщения
Вы не можете удалять свои сообщения
Вы не можете голосовать в опросах
Вы не можете прикреплять файлы к сообщениям
Вы не можете скачивать файлы