Тысячелетняя история Перу / Millennial Peru: The unexplored history (Хосе Мануэль Новоа / Jose Manuel Novoa) [2012 г., Студия "СВ Дубль", SATRip]

 
Автор Сообщение

skorpionN ®

Пол:

Стаж: 2 года 9 месяцев

Сообщений: 882



Награды: 4 (Подробнее)

Top Releaser 2 (Количество: 1) Mega Seeder 1 (Количество: 1) Mega Seeder 3 (Количество: 1)
Торрент-статистика

Создавать темы 23-Мар-2015 09:46

[Цитировать]

Тысячелетняя история Перу / Millennial Peru: The unexplored history
Год выпуска: 2012
Страна: Испания, ExploraFilms
Жанр: Документальный, история
Продолжительность: 00:50:31
Перевод: Профессиональный (одноголосый) - Студия "СВ Дубль"
Режиссер: Хосе Мануэль Новоа / Jose Manuel Novoa
Описание: Фильм - путешествие в древнейшую историю Перу. 4 тысячи лет назад, задолго до образования государства инков и прибытия на материк испанских конкистадоров, Анды и северное побережье были колыбелью ранних цивилизаций. Святилища, золотые украшения и мумии - всё это источники информации об их существовании...
Качество: SATRip
Формат: AVI
Видео кодек: XviD
Аудио кодек: AC3
Видео: 720x400 25fps ~1850 Kbps
Аудио: AC3 2ch, 48kHz, 192 kbps

Скриншоты


MediaInfo:

Format : AVI
Format/Info : Audio Video Interleave
File size : 741 MiB
Duration : 50mn 31s
Overall bit rate : 2 052 Kbps
Writing application : VirtualDubMod 1.5.10.3 | www.virtualdub-fr.org || (build 2550/release)
Writing library : VirtualDubMod build 2550/release
Video
ID : 0
Format : MPEG-4 Visual
Format profile : Advanced Simple@L5
Format settings, BVOP : 2
Format settings, QPel : No
Format settings, GMC : No warppoints
Format settings, Matrix : Default (H.263)
Codec ID : XVID
Codec ID/Hint : XviD
Duration : 50mn 31s
Bit rate : 1 850 Kbps
Width : 720 pixels
Height : 400 pixels
Display aspect ratio : 16:9
Frame rate : 25.000 fps
Color space : YUV
Chroma subsampling : 4:2:0
Bit depth : 8 bits
Scan type : Progressive
Compression mode : Lossy
Bits/(Pixel*Frame) : 0.257
Stream size : 668 MiB (90%)
Writing library : XviD 1.2.1 (UTC 2008-12-04)
Audio
ID : 1
Format : AC-3
Format/Info : Audio Coding 3
Mode extension : CM (complete main)
Format settings, Endianness : Big
Codec ID : 2000
Duration : 50mn 31s
Bit rate mode : Constant
Bit rate : 192 Kbps
Channel(s) : 2 channels
Channel positions : Front: L R
Sampling rate : 48.0 KHz
Bit depth : 16 bits
Compression mode : Lossy
Stream size : 69.4 MiB (9%)
Alignment : Split accross interleaves
Interleave, duration : 40 ms (1.00 video frame)
Interleave, preload duration : 500 ms
[Профиль] [ЛС]
Показать сообщения:    

Текущее время: Сегодня 15:55

Часовой пояс: GMT



Вы не можете начинать темы
Вы не можете отвечать на сообщения
Вы не можете редактировать свои сообщения
Вы не можете удалять свои сообщения
Вы не можете голосовать в опросах
Вы не можете прикреплять файлы к сообщениям
Вы не можете скачивать файлы