Турки-османы. Мусульманские властители Европы / BBC. The Ottomans: Europe\'s Muslim Emperors (Джиллиан Бэнкрофт / Gillian Bancroft) [2013, документальный, история, HDTVRip 720p]

 
Автор Сообщение

TorrentFilm ®

Пол:

Стаж: 2 года

Сообщений: 7741



Награды: Нет

Торрент-статистика

Создавать темы 26-Дек-2014 02:00

[Цитировать]

Турки-османы. Мусульманские властители Европы / The Ottomans: Europe's Muslim Emperors Год выпуска: 2013
Страна: Великобритания
Студия: BBC
Жанр: документальный, история
Продолжительность: 3 х ~00:52:00
Перевод: Профессиональный двухголосый (закадровый) - Ред Медиа
Субтитры: нет
Режиссер: Джиллиан Бэнкрофт / Gillian Bancroft
Описание: Османская империя была одной из крупнейших империей в мире. Сверхдержава, сравнимая по могуществу, территории и богатству с Древним Римом, просуществовавшая шесть веков, неожиданно рухнула менее 100 лет назад.
Доп. информация: Релиз skorpionN.
Тип релиза: HDTVRip 720p
Контейнер: MKV
Видео: MPEG-4 AVC, 1280x720 (16:9), 25.000 fps, 3679 Kbps
Аудио: Russian AC3, 2 ch, 48KHz, 192 Kbps
Формат субтитров: softsub (SRT)
Сэмпл Другие фильмы BBC в HD

MediaInfo

General
Unique ID : 201091344817107612456921912477030786435 (0x9748C8C4DF5F2E8AA34804247F0BA583)
Complete name : C:\Загрузки\Турки-османы. Мусульманские властители Европы\part_01.mkv
Format : Matroska
Format version : Version 4 / Version 2
File size : 1.43 GiB
Duration : 52mn 0s
Overall bit rate mode : Constant
Overall bit rate : 3 950 Kbps
Encoded date : UTC 2014-11-12 12:30:36
Writing application : mkvmerge v7.3.0 ('Nouages') 64bit built on Oct 22 2014 18:53:34
Writing library : libebml v1.3.0 + libmatroska v1.4.1
DURATION : 00:51:56.320000000
NUMBER_OF_FRAMES : 97385
NUMBER_OF_BYTES : 74791680
_STATISTICS_WRITING_APP : mkvmerge v7.3.0 ('Nouages') 64bit built on Oct 22 2014 18:53:34
_STATISTICS_WRITING_DATE_UTC : 2014-11-12 12:30:36
_STATISTICS_TAGS : BPS DURATION NUMBER_OF_FRAMES NUMBER_OF_BYTES
Video
ID : 1
Format : AVC
Format/Info : Advanced Video Codec
Format profile : High@L3.1
Format settings, CABAC : Yes
Format settings, ReFrames : 3 frames
Codec ID : V_MPEG4/ISO/AVC
Duration : 52mn 0s
Bit rate mode : Constant
Bit rate : 3 679 Kbps
Nominal bit rate : 4 000 Kbps / 4 000 Kbps
Width : 1 280 pixels
Height : 720 pixels
Display aspect ratio : 16:9
Frame rate mode : Constant
Frame rate : 25.000 fps
Standard : NTSC
Color space : YUV
Chroma subsampling : 4:2:0
Bit depth : 8 bits
Scan type : Progressive
Bits/(Pixel*Frame) : 0.160
Stream size : 1.34 GiB (93%)
Writing library : x264 core 114
Encoding settings : cabac=1 / ref=3 / deblock=1:0:0 / analyse=0x3:0x113 / me=hex / subme=7 / psy=1 / psy_rd=1.00:0.00 / mixed_ref=1 / me_range=16 / chroma_me=1 / trellis=1 / 8x8dct=1 / cqm=2 / deadzone=21,11 / fast_pskip=1 / chroma_qp_offset=-2 / threads=6 / sliced_threads=0 / slices=1 / nr=0 / decimate=1 / interlaced=0 / constrained_intra=0 / bframes=3 / b_pyramid=0 / b_adapt=1 / b_bias=0 / direct=1 / weightb=1 / open_gop=0 / weightp=2 / keyint=250 / keyint_min=25 / scenecut=40 / intra_refresh=0 / rc_lookahead=40 / rc=cbr / mbtree=1 / bitrate=4000 / ratetol=1.0 / qcomp=0.60 / qpmin=3 / qpmax=69 / qpstep=4 / vbv_maxrate=4000 / vbv_bufsize=3997 / nal_hrd=cbr / ip_ratio=1.40 / aq=1:1.00
Default : Yes
Forced : No
Color primaries : BT.709
Transfer characteristics : BT.709
Matrix coefficients : BT.709
Audio
ID : 2
Format : AC-3
Format/Info : Audio Coding 3
Mode extension : CM (complete main)
Format settings, Endianness : Big
Codec ID : A_AC3
Duration : 52mn 0s
Bit rate mode : Constant
Bit rate : 192 Kbps
Channel(s) : 2 channels
Channel positions : Front: L R
Sampling rate : 48.0 KHz
Bit depth : 16 bits
Compression mode : Lossy
Stream size : 71.4 MiB (5%)
Default : Yes
Forced : No

Скриншоты

[Профиль] [ЛС]
Кто просматривает тему:

Показать сообщения:    

Текущее время: Сегодня 06:06

Часовой пояс: GMT



Вы не можете начинать темы
Вы не можете отвечать на сообщения
Вы не можете редактировать свои сообщения
Вы не можете удалять свои сообщения
Вы не можете голосовать в опросах
Вы не можете прикреплять файлы к сообщениям
Вы не можете скачивать файлы