Турецкие наслаждения / Turks fruit (1973) DVDRip-AVC | P2, A

 
Автор Сообщение

mytorrnado ®

Стаж: 10 месяцев 26 дней

Сообщений: 1



Награды: Нет

Торрент-статистика

Создавать темы 13-Янв-2016 08:14

[Цитировать]

Название: Турецкие наслаждения
Оригинальное название: Turks fruit
Год выхода: 1973
Страна: Нидерланды
Студия: Verenigde Nederlandsche Filmcompagnie (VNF)
Продолжительность: 01:43:36
Жанр: драма, мелодрама, ...
Режиссер: Пол Верховен
В ролях: Моник ван де Вен, Рутгер Хауэр, Тонни Хюрдеман, Вим ван ден Бринк, Ганс Боскамп, Дольф де Врис, Манфред де Граф, Дик Схеффер, Марьоль Флоре, Берт Дейкстра, ...
Перевод:
Профессиональный (двухголосый, закадровый) R5
Авторский (одноголосый, закадровый) Живов Юрий Викторович
Субтитры
О фильме: Ничто не предвещало того, что встреча Эрика и Ольги продлится дольше нескольких часов. Эротическое приключение на заднем сидении автомобиля становится началом безграничной роковой любви, натуралистичные появления которой лицемерно отвергаются общественной моралью.

Кодек: x264
Качество: DVDRip-AVC
Видео: 936x576, 4000 kbps, 25 fps
Аудио #1: AC-3, 2 ch, 224 kbps (Rus) - DVO R5
Аудио #2: AC-3, 2 ch, 192 kbps (Rus) - AVO Живов Юрий Викторович
Аудио #3: AC-3, 2 ch, 224 kbps (Dut)
Субтитры: Русские

Дополнительная информация

За исходник PAL 16:9 (720x576) VBR спасибо - Гость

MI

x264 [info]: frame I:945 Avg QP:17.34 size: 60094
x264 [info]: frame P:38928 Avg QP:19.80 size: 33848
x264 [info]: frame B:115538 Avg QP:21.78 size: 14984
x264 [info]: consecutive B-frames: 1.4% 4.8% 6.2% 60.6% 12.4% 8.2% 3.9% 1.6% 0.1% 0.1% 0.1% 0.4% 0.2%
Общее
Уникальный идентификатор : 216875340227952589588597812512586539215 (0xA328ABD365BC1B92A05C75B136D120CF)
Полное имя : Турецкие наслаждения (Turks fruit) 1973 DVDRip-AVC.mkv
Формат : Matroska
Версия формата : Version 2
Размер файла : 3,36 Гбайт
Продолжительность : 1 ч. 43 м.
Общий поток : 4639 Кбит/сек
Дата кодирования : UTC 2016-01-13 05:32:07
Программа кодирования : mkvmerge v4.0.0 ('The Stars were mine') сборка от Jun 6 2010 16:18:42
Библиотека кодирования : libebml v1.0.0 + libmatroska v1.0.0
Видео
Идентификатор : 1
Формат : AVC
Формат/Информация : Advanced Video Codec
Профиль формата : High@L4.1
Параметр CABAC формата : Да
Параметр ReFrames формата : 9 кадров
Идентификатор кодека : V_MPEG4/ISO/AVC
Продолжительность : 1 ч. 43 м.
Битрейт : 4000 Кбит/сек
Ширина : 936 пикселей
Высота : 576 пикселей
Соотношение сторон : 16:10
Режим частоты кадров : Постоянный
Частота кадров : 25,000 кадров/сек
Цветовое пространство : YUV
Субдискретизация насыщенности : 4:2:0
Битовая глубина : 8 бит
Тип развёртки : Прогрессивная
Бит/(Пиксели*Кадры) : 0.297
Размер потока : 2,83 Гбайт (84%)
Библиотека кодирования : x264 core 146 r2538 121396c
Настройки программы : cabac=1 / ref=9 / deblock=1:-3:-3 / analyse=0x3:0x133 / me=umh / subme=11 / psy=1 / psy_rd=1.00:0.00 / mixed_ref=1 / me_range=32 / chroma_me=1 / trellis=2 / 8x8dct=1 / cqm=0 / deadzone=21,11 / fast_pskip=1 / chroma_qp_offset=-4 / threads=12 / lookahead_threads=2 / sliced_threads=0 / nr=0 / decimate=0 / interlaced=0 / bluray_compat=0 / constrained_intra=0 / bframes=12 / b_pyramid=2 / b_adapt=2 / b_bias=0 / direct=3 / weightb=1 / open_gop=0 / weightp=2 / keyint=250 / keyint_min=25 / scenecut=40 / intra_refresh=0 / rc_lookahead=60 / rc=2pass / mbtree=0 / bitrate=4000 / ratetol=1.0 / qcomp=0.60 / qpmin=0 / qpmax=69 / qpstep=4 / cplxblur=20.0 / qblur=0.5 / vbv_maxrate=50000 / vbv_bufsize=62500 / nal_hrd=none / filler=0 / ip_ratio=1.40 / pb_ratio=1.30 / aq=1:0.80
Язык : Dutch
Default : Нет
Forced : Нет
Аудио #1
Идентификатор : 2
Формат : AC-3
Формат/Информация : Audio Coding 3
Расширение режима : CM (complete main)
Параметр Endianness формата : Big
Идентификатор кодека : A_AC3
Продолжительность : 1 ч. 43 м.
Вид битрейта : Постоянный
Битрейт : 224 Кбит/сек
Каналы : 2 канала
Расположение каналов : Front: L R
Частота : 48,0 КГц
Метод сжатия : С потерями
Размер потока : 166 Мбайт (5%)
Заголовок : DVO R5
Язык : Russian
Default : Нет
Forced : Нет
Аудио #2
Идентификатор : 3
Формат : AC-3
Формат/Информация : Audio Coding 3
Расширение режима : CM (complete main)
Параметр Endianness формата : Big
Идентификатор кодека : A_AC3
Продолжительность : 1 ч. 43 м.
Вид битрейта : Постоянный
Битрейт : 192 Кбит/сек
Каналы : 2 канала
Расположение каналов : Front: L R
Частота : 48,0 КГц
Метод сжатия : С потерями
Размер потока : 142 Мбайт (4%)
Заголовок : AVO Живов Юрий Викторович
Язык : Russian
Default : Нет
Forced : Нет
Аудио #3
Идентификатор : 4
Формат : AC-3
Формат/Информация : Audio Coding 3
Расширение режима : CM (complete main)
Параметр Endianness формата : Big
Идентификатор кодека : A_AC3
Продолжительность : 1 ч. 43 м.
Вид битрейта : Постоянный
Битрейт : 224 Кбит/сек
Каналы : 2 канала
Расположение каналов : Front: L R
Частота : 48,0 КГц
Метод сжатия : С потерями
Размер потока : 166 Мбайт (5%)
Язык : Dutch
Default : Нет
Forced : Нет
Текст
Идентификатор : 5
Формат : UTF-8
Идентификатор кодека : S_TEXT/UTF8
Идентификатор кодека/Информация : UTF-8 Plain Text
Язык : Russian
Default : Нет
Forced : Нет

[Профиль] [ЛС]
Показать сообщения:    

Текущее время: Сегодня 20:26

Часовой пояс: GMT



Вы не можете начинать темы
Вы не можете отвечать на сообщения
Вы не можете редактировать свои сообщения
Вы не можете удалять свои сообщения
Вы не можете голосовать в опросах
Вы не можете прикреплять файлы к сообщениям
Вы не можете скачивать файлы