Турбо пацан / Turbo Kid (2015) BDRip 720p от AleksSin | L2

 
Автор Сообщение

AleksSin ®

Пол:

Стаж: 6 лет

Сообщений: 218



Награды: 4 (Подробнее)

Mega Seeder 4 (Количество: 1) Mega Seeder 3 (Количество: 1) Mega Seeder 1 (Количество: 1)
Торрент-статистика

Создавать темы 21-Окт-2015 05:47

[Цитировать]

Информация о фильме
Название: Турбо пацан
Оригинальное название: Turbo Kid
Год выхода: 2015
Жанр: Фантастика, боевик
Режиссер: Франсуа Симар / Francois Simard
В ролях: Манро Чэмберс, Лоранс Лебёф, Майкл Айронсайд, Эдвин Райт, Аарон Джеффри, Романо Орцари, Ив Корбелл, Ивэн Манукян...
О фильме:
Примерив костюм своего любимого героя комиксов, парнишка должен спасти новую странноватую подружку и положить конец правлению безумного тирана на просторах пост-апокалиптической пустоши.

Страна: Канада, Новая Зеландия
Студия: EMA Films, Epic Pictures Group, Timpson Films
Продолжительность: 01:32:53
Перевод: Любительский (двухголосый закадровый) Мтрск & StacyLagler
Файл
Кодек: x264
Качество: BDRip 720p (Исх. Blu-Ray Remux (1080p))
Видео: 1280x536 (2.40:1) at 23.976 fps, AVC at 4981 kbps avg, 0.30 bit/pixel
Аудио #1: Русский (AC3, 2 ch, 48,0 КГц, 16 бит, 192 Кбит/с) - Любительский (двухголосый закадровый)
Аудио #1: Английский (DTS, 6 ch, 48,0 КГц, 16 бит, 1509 Кбит/c) - Оригинал
Субтитры: Английские
Навигация по главам: Есть

MediaInfo

Общее
Уникальный идентификатор : 180464528324641439522675804392693519213 (0x87C43432CA961E7EB7EB71C1936D536D)
Полное имя : S:ФильмыТурбо Пацан. 2015. BDRip 720p (AleksSin).mkv
Формат : Matroska
Версия формата : Version 4 / Version 2
Размер файла : 4,42 Гбайт
Продолжительность : 1 ч. 32 м.
Общий поток : 6817 Кбит/сек
Дата кодирования : UTC 2015-10-18 09:52:51
Программа кодирования : mkvmerge v8.1.0 ('Psychedelic Postcard') 32bit
Библиотека кодирования : libebml v1.3.1 + libmatroska v1.4.2
DURATION : 01:25:59.112000000
NUMBER_OF_FRAMES : 670
NUMBER_OF_BYTES : 20378
_STATISTICS_WRITING_APP : mkvmerge v8.1.0 ('Psychedelic Postcard') 32bit
_STATISTICS_WRITING_DATE_UTC : 2015-10-18 09:52:51
_STATISTICS_TAGS : BPS DURATION NUMBER_OF_FRAMES NUMBER_OF_BYTES
Видео
Идентификатор : 1
Формат : AVC
Формат/Информация : Advanced Video Codec
Профиль формата : High@L4.1
Параметр CABAC формата : Да
Параметр ReFrames формата : 8 кадров
Идентификатор кодека : V_MPEG4/ISO/AVC
Продолжительность : 1 ч. 32 м.
Битрейт : 4981 Кбит/сек
Ширина : 1280 пикселей
Высота : 536 пикселей
Соотношение сторон : 2,40:1
Режим частоты кадров : Постоянный
Частота кадров : 23,976 кадра/сек
Цветовое пространство : YUV
Субдискретизация насыщенности : 4:2:0
Битовая глубина : 8 бит
Тип развёртки : Прогрессивная
Бит/(Пиксели*Кадры) : 0.303
Размер потока : 3,23 Гбайт (73%)
Библиотека кодирования : x264 core 146 r2538 121396c
Настройки программы : cabac=1 / ref=8 / deblock=1:-3:-3 / analyse=0x3:0x133 / me=umh / subme=11 / psy=1 / psy_rd=1.00:0.00 / mixed_ref=1 / me_range=32 / chroma_me=1 / trellis=2 / 8x8dct=1 / cqm=0 / deadzone=21,11 / fast_pskip=1 / chroma_qp_offset=-2 / threads=12 / lookahead_threads=2 / sliced_threads=0 / nr=0 / decimate=1 / interlaced=0 / bluray_compat=0 / constrained_intra=0 / bframes=10 / b_pyramid=2 / b_adapt=2 / b_bias=0 / direct=1 / weightb=1 / open_gop=0 / weightp=2 / keyint=250 / keyint_min=23 / scenecut=40 / intra_refresh=0 / rc=crf / mbtree=0 / crf=17.4 / qcomp=0.60 / qpmin=0 / qpmax=69 / qpstep=4 / ip_ratio=1.40 / pb_ratio=1.30 / aq=1:1.00
Default : Да
Forced : Нет
Аудио #1
Идентификатор : 2
Формат : AC-3
Формат/Информация : Audio Coding 3
Расширение режима : CM (complete main)
Параметр Endianness формата : Big
Идентификатор кодека : A_AC3
Продолжительность : 1 ч. 32 м.
Вид битрейта : Постоянный
Битрейт : 192 Кбит/сек
Каналы : 2 канала
Расположение каналов : Front: L R
Частота : 48,0 КГц
Битовая глубина : 16 бит
Метод сжатия : С потерями
Задержка видео : 5 с. 685 мс.
Размер потока : 128 Мбайт (3%)
Заголовок : Мтрск/StacyLagler
Язык : Russian
Default : Да
Forced : Да
Аудио #2
Идентификатор : 3
Формат : DTS
Формат/Информация : Digital Theater Systems
Режим : 16
Параметр Endianness формата : Big
Идентификатор кодека : A_DTS
Продолжительность : 1 ч. 32 м.
Вид битрейта : Постоянный
Битрейт : 1509 Кбит/сек
Каналы : 6 каналов
Расположение каналов : Front: L C R, Side: L R, LFE
Частота : 48,0 КГц
Битовая глубина : 16 бит
Метод сжатия : С потерями
Размер потока : 1003 Мбайт (22%)
Default : Нет
Forced : Нет
Текст
Идентификатор : 4
Формат : UTF-8
Идентификатор кодека : S_TEXT/UTF8
Идентификатор кодека/Информация : UTF-8 Plain Text
Default : Да
Forced : Нет
Меню
00:00:00.000 : en:
00:06:45.321 : en:
00:15:51.742 : en:
00:23:48.260 : en:
00:31:56.247 : en:
00:42:37.554 : en:
00:46:54.770 : en:
00:55:19.274 : en:
01:05:08.070 : en:
01:17:25.265 : en:
01:21:10.240 : en:
01:28:09.951 : en:

Скриншоты

Релиз от:
[Профиль] [ЛС]
Показать сообщения:    

Текущее время: Сегодня 16:54

Часовой пояс: GMT



Вы не можете начинать темы
Вы не можете отвечать на сообщения
Вы не можете редактировать свои сообщения
Вы не можете удалять свои сообщения
Вы не можете голосовать в опросах
Вы не можете прикреплять файлы к сообщениям
Вы не можете скачивать файлы