Турбо пацан / Turbo Kid (Франсуа Симар / Francois Simard) [2015, Канада, Фантастика, боевик, WEB-DLRip] DVO

 
Автор Сообщение

TorrentFilm ®

Пол:

Стаж: 2 года

Сообщений: 7741



Награды: Нет

Торрент-статистика

Создавать темы 03-Сен-2015 00:10

[Цитировать]

Турбо пацан / Turbo Kid- Год выпуска: 2015
Выпущено: Канада, Новая Зеландия / EMA Films
Жанр: фантастика, боевик
Продолжительность: 01:32:44
Перевод: Любительский (двухголосый закадровый) Мтрск & StacyLagler - Ненормативная лексика
Cубтитры: нет-Режиссер:
Франсуа Симар / Francois Simard-В ролях:
Манро Чэмберс, Лоранс Лебёф, Майкл Айронсайд, Эдвин Райт, Аарон Джеффри, Романо Орцари, Orphée Ladouceur, Steeve Léonard, Ив Корбелл, Ивэн Манукян-Описание:
Примерив костюм своего любимого героя комиксов, парнишка должен спасти новую странноватую подружку и положить конец правлению безумного тирана на просторах пост-апокалиптической пустоши.-| IMDB | КиноПоиск | Сэмпл |-Качество: WEB-DLRip [WEB-DL | 720p | Кинозал]
Формат: AVI
Видео: 720x304 (2.37:1), 23.976 fps, XviD build 73 ~2045 kbps avg, 0.39 bit/pixel
Аудио: 48 kHz, AC3 Dolby Digital, 2/0 (L,R) ch, ~192.00 kbps avg
-

Скриншоты

MediaInfo

General
Complete name                            : D:\Turbo_Kid_2015_WEB-DLRip_by_Dalemake.avi
Format                                   : AVI
Format/Info                              : Audio Video Interleave
File size                                : 1.46 GiB
Duration                                 : 1h 32mn
Overall bit rate                         : 2 247 Kbps
Writing application                      : VirtualDubMod 1.5.10.3 | www.virtualdub-fr.org || (build 2550/release)
Writing library                          : VirtualDubMod build 2550/release
Video
ID                                       : 0
Format                                   : MPEG-4 Visual
Format profile                           : Advanced Simple@L5
Format settings, BVOP                    : 1
Format settings, QPel                    : No
Format settings, GMC                     : No warppoints
Format settings, Matrix                  : Custom
Codec ID                                 : XVID
Codec ID/Hint                            : XviD
Duration                                 : 1h 32mn
Bit rate                                 : 2 046 Kbps
Width                                    : 720 pixels
Height                                   : 304 pixels
Display aspect ratio                     : 2.35:1
Frame rate                               : 23.976 fps
Color space                              : YUV
Chroma subsampling                       : 4:2:0
Bit depth                                : 8 bits
Scan type                                : Progressive
Compression mode                         : Lossy
Bits/(Pixel*Frame)                       : 0.390
Stream size                              : 1.33 GiB (91%)
Writing library                          : XviD 73
Audio
ID                                       : 1
Format                                   : AC-3
Format/Info                              : Audio Coding 3
Mode extension                           : CM (complete main)
Format settings, Endianness              : Big
Codec ID                                 : 2000
Duration                                 : 1h 32mn
Bit rate mode                            : Constant
Bit rate                                 : 192 Kbps
Channel(s)                               : 2 channels
Channel positions                        : Front: L R
Sampling rate                            : 48.0 KHz
Bit depth                                : 16 bits
Compression mode                         : Lossy
Stream size                              : 127 MiB (9%)
Alignment                                : Split accross interleaves
Interleave, duration                     : 42 ms (1.00 video frame)
Interleave, preload duration             : 500 ms
-
[Профиль] [ЛС]
Показать сообщения:    

Текущее время: Сегодня 09:06

Часовой пояс: GMT



Вы не можете начинать темы
Вы не можете отвечать на сообщения
Вы не можете редактировать свои сообщения
Вы не можете удалять свои сообщения
Вы не можете голосовать в опросах
Вы не можете прикреплять файлы к сообщениям
Вы не можете скачивать файлы