Тупой и еще тупее / Dumb & Dumber (1994) BDRip 720p by msltel | P, P2, P1, A | Расширенная версия

 
Автор Сообщение

sergej644 ®

Пол:

Стаж: 4 года 11 месяцев

Сообщений: 6042

Откуда: Soviet Union



Награды: Нет

Торрент-статистика

Создавать темы 08-Фев-2015 16:24

[Цитировать]

Название: Тупой и еще тупее
Оригинальное название: Dumb & Dumber
Год выпуска: 1994
Жанр: Комедия
Выпущено: США, Motion Picture Corporation of America (MPCA), New Line Cinema, W.M. Creations
Режиссер: Питер Фаррелли, Бобби Фаррелли
В ролях: Джим Керри, Джефф Дэниелс, Лоурен Холли, Майк Старр, Карен Даффи, Чарльз Роккет, Виктория Роуэлл, Джо Бэйкер, Хэнк Брандт, Тери Гарр, Фелтон Перри, Кэм Нили
О фильме: Два полных придурка, Ллойд Крисмас и Харри Данн, пытаются нагнать красивую девушку Мэри Суонсон, чтобы вручить ей потерянный ею чемоданчик-дипломат. Кретинам невдомёк, что Мэри обронила его специально, в качестве выкупа по договоренности с бандитами, похитившими её мужа. Ведь внутри лежит кругленькая сумма. На мохнатой машине уникальной марки «Овчарка» двое идиотов пересекают Америку от Род-Айленда до Колорадо, где и находят обворожительную Мэри, в которую Ллойд уже успел втюриться без памяти.
Качество: BDRip 720p
Размер: 13.04 ГБ
Продолжительность: 01:52:50
Видео: MPEG-4 AVC, 5721 Kбит/с, 1280x720, 23.976 кадр/с
Аудио 1: русский, AC3, 192 kbps, 2 ch, 48 kHz [Профессиональный многоголосый, РТР]
Аудио 2: русский, AC3, 192 kbps, 2 ch, 48 kHz [Профессиональный многоголосый, CTC]
Аудио 3: русский, AC3, 448 kbps, 6 ch, 48 kHz [Профессиональный двухголосый, R5]
Аудио 4: русский, AC3, 448 kbps, 6 ch, 48 kHz [Профессиональный двухголосый, Пётр Гланц и Инна Королёва]
Аудио 5: русский, AC3, 192 kbps, 2 ch, 48 kHz [Авторский, Сергей Визгунов]
Аудио 6: русский, AC3, 448 kbps, 6 ch, 48 kHz [Авторский, Андрей Гаврилов (ранний)]
Аудио 7: русский, AC3, 448 kbps, 6 ch, 48 kHz [Авторский, Андрей Гаврилов (поздний)]
Аудио 8: русский, AC3, 448 kbps, 6 ch, 48 kHz [Авторский, Юрий Сербин]
Отдельные файлы
Аудио: русский, DTS, 1509 kbps, 6 ch, 48 kHz [Профессиональный двухголосый, Пётр Гланц и Инна Королёва]
Аудио: русский, AC3, 192 kbps, 2 ch, 48 kHz [Профессиональный двухголосый, HTB]
Аудио: русский, DTS, 1509 kbps, 6 ch, 48 kHz [Авторский, Андрей Гаврилов (ранний)]
Аудио: русский, DTS, 1509 kbps, 6 ch, 48 kHz [Авторский, Андрей Гаврилов (поздний)]
Аудио: русский, AC3, 192 kbps, 2 ch, 48 kHz [Авторский, Александр Кашкин]
Аудио: русский, AC3, 192 kbps, 2 ch, 48 kHz [Авторский, Виктор Махонько]
Аудио: русский, AC3, 192 kbps, 2 ch, 48 kHz [Авторский, Евгений Бойков]
Аудио: русский, AC3, 384 kbps, 6 ch, 48 kHz [Профессиональный одноголосый, диктор CDV]
Аудио: английский, AC3, 640 kbps, 6 ch, 48 kHz [Оригинал]
Субтитры: русские
Субтитры: английские (для слабослышащих)
Все звукодорожки, кроме Гланца и позднего перевода Гаврилова, подогнаны от театральной версии и содержат вставки с дорог 4 и 7 в расширенных фрагментах.
Исходник от Буковски Сравнение с исходником

Награды

Премия канала «MTV», 1995 год
Победитель (2):
Лучшая комедийная роль (Джим Керри)
Лучший поцелуй (Джим Керри, Лорен Холли)
Номинации (1):
Лучший экранный дуэт (Джим Керри, Джефф Дэниелс)

MediaInfo + Лог х264

Общее
Полное имя : D:VideoTupoj i eshe tupee.Unrated.1994.BDRip.720pTupoj i eshe tupee.Unrated.1994.AVO.rus.А.Гаврилов (поздний).dts
Формат : DTS
Формат/Информация : Digital Theater Systems
Размер файла : 1,19 Гбайт
Продолжительность : 1 ч. 52 м.
Режим общего битрейта : Постоянный
Общий поток : 1509 Кбит/сек
Аудио
Формат : DTS
Формат/Информация : Digital Theater Systems
Режим : 16
Параметр Endianness формата : Big
Продолжительность : 1 ч. 52 м.
Вид битрейта : Постоянный
Битрейт : 1509 Кбит/сек
Каналы : 6 каналов
Расположение каналов : Front: L C R, Side: L R, LFE
Частота : 48,0 КГц
Битовая глубина : 16 бит
Метод сжатия : С потерями
Размер потока : 1,19 Гбайт (100%)
Общее
Полное имя : D:VideoTupoj i eshe tupee.Unrated.1994.BDRip.720pTupoj i eshe tupee.Unrated.1994.AVO.rus.А.Гаврилов (ранний).dts
Формат : DTS
Формат/Информация : Digital Theater Systems
Размер файла : 1,19 Гбайт
Продолжительность : 1 ч. 52 м.
Режим общего битрейта : Постоянный
Общий поток : 1509 Кбит/сек
Аудио
Формат : DTS
Формат/Информация : Digital Theater Systems
Режим : 16
Параметр Endianness формата : Big
Продолжительность : 1 ч. 52 м.
Вид битрейта : Постоянный
Битрейт : 1509 Кбит/сек
Каналы : 6 каналов
Расположение каналов : Front: L C R, Side: L R, LFE
Частота : 48,0 КГц
Битовая глубина : 16 бит
Метод сжатия : С потерями
Размер потока : 1,19 Гбайт (100%)
Общее
Полное имя : D:VideoTupoj i eshe tupee.Unrated.1994.BDRip.720pTupoj i eshe tupee.Unrated.1994.AVO.rus.А.Кашкин.ac3
Формат : AC-3
Формат/Информация : Audio Coding 3
Размер файла : 155 Мбайт
Продолжительность : 1 ч. 52 м.
Режим общего битрейта : Постоянный
Общий поток : 192 Кбит/сек
Аудио
Формат : AC-3
Формат/Информация : Audio Coding 3
Расширение режима : CM (complete main)
Параметр Endianness формата : Big
Продолжительность : 1 ч. 52 м.
Вид битрейта : Постоянный
Битрейт : 192 Кбит/сек
Каналы : 2 канала
Расположение каналов : Front: L R
Частота : 48,0 КГц
Битовая глубина : 16 бит
Метод сжатия : С потерями
Размер потока : 155 Мбайт (100%)
Общее
Полное имя : D:VideoTupoj i eshe tupee.Unrated.1994.BDRip.720pTupoj i eshe tupee.Unrated.1994.AVO.rus.В.Махонько.ac3
Формат : AC-3
Формат/Информация : Audio Coding 3
Размер файла : 155 Мбайт
Продолжительность : 1 ч. 52 м.
Режим общего битрейта : Постоянный
Общий поток : 192 Кбит/сек
Аудио
Формат : AC-3
Формат/Информация : Audio Coding 3
Расширение режима : CM (complete main)
Параметр Endianness формата : Big
Продолжительность : 1 ч. 52 м.
Вид битрейта : Постоянный
Битрейт : 192 Кбит/сек
Каналы : 2 канала
Расположение каналов : Front: L R
Частота : 48,0 КГц
Битовая глубина : 16 бит
Метод сжатия : С потерями
Размер потока : 155 Мбайт (100%)
Общее
Полное имя : D:VideoTupoj i eshe tupee.Unrated.1994.BDRip.720pTupoj i eshe tupee.Unrated.1994.AVO.rus.Е.Бойков.ac3
Формат : AC-3
Формат/Информация : Audio Coding 3
Размер файла : 155 Мбайт
Продолжительность : 1 ч. 52 м.
Режим общего битрейта : Постоянный
Общий поток : 192 Кбит/сек
Аудио
Формат : AC-3
Формат/Информация : Audio Coding 3
Расширение режима : CM (complete main)
Параметр Endianness формата : Big
Продолжительность : 1 ч. 52 м.
Вид битрейта : Постоянный
Битрейт : 192 Кбит/сек
Каналы : 2 канала
Расположение каналов : Front: L R
Частота : 48,0 КГц
Битовая глубина : 16 бит
Метод сжатия : С потерями
Размер потока : 155 Мбайт (100%)
Общее
Полное имя : D:VideoTupoj i eshe tupee.Unrated.1994.BDRip.720pTupoj i eshe tupee.Unrated.1994.AVO.rus.Ю.Сербин.dts
Формат : DTS
Формат/Информация : Digital Theater Systems
Размер файла : 1,19 Гбайт
Продолжительность : 1 ч. 52 м.
Режим общего битрейта : Постоянный
Общий поток : 1509 Кбит/сек
Аудио
Формат : DTS
Формат/Информация : Digital Theater Systems
Режим : 16
Параметр Endianness формата : Big
Продолжительность : 1 ч. 52 м.
Вид битрейта : Постоянный
Битрейт : 1509 Кбит/сек
Каналы : 6 каналов
Расположение каналов : Front: L C R, Side: L R, LFE
Частота : 48,0 КГц
Битовая глубина : 16 бит
Метод сжатия : С потерями
Размер потока : 1,19 Гбайт (100%)
Общее
Уникальный идентификатор : 233606962425464041812220460858247841247 (0xAFBF107D84A3773BAA0737D4978D85DF)
Полное имя : D:VideoTupoj i eshe tupee.Unrated.1994.BDRip.720pTupoj i eshe tupee.Unrated.1994.BDRip.720p.mkv
Формат : Matroska
Версия формата : Version 4 / Version 2
Размер файла : 6,87 Гбайт
Продолжительность : 1 ч. 52 м.
Общий поток : 8710 Кбит/сек
Дата кодирования : UTC 2014-09-20 02:04:14
Программа кодирования : mkvmerge v6.9.1 ('Blue Panther') 64bit built on Apr 18 2014 18:23:38
Библиотека кодирования : libebml v1.3.0 + libmatroska v1.4.1
Видео
Идентификатор : 1
Формат : AVC
Формат/Информация : Advanced Video Codec
Профиль формата : High@L4.1
Параметр CABAC формата : Да
Параметр ReFrames формата : 9 кадров
Идентификатор кодека : V_MPEG4/ISO/AVC
Продолжительность : 1 ч. 52 м.
Битрейт : 5721 Кбит/сек
Ширина : 1280 пикселей
Высота : 720 пикселей
Соотношение сторон : 16:9
Режим частоты кадров : Постоянный
Частота кадров : 23,976 кадра/сек
Цветовое пространство : YUV
Субдискретизация насыщенности : 4:2:0
Битовая глубина : 8 бит
Тип развёртки : Прогрессивная
Бит/(Пиксели*Кадры) : 0.259
Размер потока : 4,51 Гбайт (66%)
Заголовок : BDRip -- STarankov
Библиотека кодирования : x264 core 142 r2431 ac76440
Настройки программы : cabac=1 / ref=9 / deblock=1:-1:-1 / analyse=0x3:0x113 / me=umh / subme=10 / psy=1 / psy_rd=1.00:0.15 / mixed_ref=1 / me_range=32 / chroma_me=1 / trellis=2 / 8x8dct=1 / cqm=0 / deadzone=21,11 / fast_pskip=0 / chroma_qp_offset=-3 / threads=6 / lookahead_threads=1 / sliced_threads=0 / nr=0 / decimate=1 / interlaced=0 / bluray_compat=0 / constrained_intra=0 / bframes=8 / b_pyramid=2 / b_adapt=2 / b_bias=0 / direct=1 / weightb=1 / open_gop=0 / weightp=2 / keyint=230 / keyint_min=23 / scenecut=40 / intra_refresh=0 / rc_lookahead=40 / rc=crf / mbtree=0 / crf=18.0 / qcomp=0.60 / qpmin=0 / qpmax=69 / qpstep=4 / vbv_maxrate=40000 / vbv_bufsize=50000 / crf_max=0.0 / nal_hrd=none / filler=0 / ip_ratio=1.40 / pb_ratio=1.30 / aq=1:1.00
Язык : English
Default : Да
Forced : Нет
Аудио #1
Идентификатор : 2
Формат : AC-3
Формат/Информация : Audio Coding 3
Расширение режима : CM (complete main)
Параметр Endianness формата : Big
Идентификатор кодека : A_AC3
Продолжительность : 1 ч. 52 м.
Вид битрейта : Постоянный
Битрейт : 192 Кбит/сек
Каналы : 2 канала
Расположение каналов : Front: L R
Частота : 48,0 КГц
Битовая глубина : 16 бит
Метод сжатия : С потерями
Размер потока : 155 Мбайт (2%)
Заголовок : MVO (PTP)
Язык : Russian
Default : Да
Forced : Нет
Аудио #2
Идентификатор : 3
Формат : AC-3
Формат/Информация : Audio Coding 3
Расширение режима : CM (complete main)
Параметр Endianness формата : Big
Идентификатор кодека : A_AC3
Продолжительность : 1 ч. 52 м.
Вид битрейта : Постоянный
Битрейт : 192 Кбит/сек
Каналы : 2 канала
Расположение каналов : Front: L R
Частота : 48,0 КГц
Битовая глубина : 16 бит
Метод сжатия : С потерями
Размер потока : 155 Мбайт (2%)
Заголовок : MVO (CTC)
Язык : Russian
Default : Нет
Forced : Нет
Аудио #3
Идентификатор : 4
Формат : AC-3
Формат/Информация : Audio Coding 3
Расширение режима : CM (complete main)
Параметр Endianness формата : Big
Идентификатор кодека : A_AC3
Продолжительность : 1 ч. 52 м.
Вид битрейта : Постоянный
Битрейт : 448 Кбит/сек
Каналы : 6 каналов
Расположение каналов : Front: L C R, Side: L R, LFE
Частота : 48,0 КГц
Битовая глубина : 16 бит
Метод сжатия : С потерями
Размер потока : 362 Мбайт (5%)
Заголовок : DVO (R5)
Язык : Russian
Default : Нет
Forced : Нет
Аудио #4
Идентификатор : 5
Формат : AC-3
Формат/Информация : Audio Coding 3
Расширение режима : CM (complete main)
Параметр Endianness формата : Big
Идентификатор кодека : A_AC3
Продолжительность : 1 ч. 52 м.
Вид битрейта : Постоянный
Битрейт : 448 Кбит/сек
Каналы : 6 каналов
Расположение каналов : Front: L C R, Side: L R, LFE
Частота : 48,0 КГц
Битовая глубина : 16 бит
Метод сжатия : С потерями
Размер потока : 362 Мбайт (5%)
Заголовок : DVO (Пётр Гланц и Инна Королёва)
Язык : Russian
Default : Нет
Forced : Нет
Аудио #5
Идентификатор : 6
Формат : AC-3
Формат/Информация : Audio Coding 3
Расширение режима : CM (complete main)
Параметр Endianness формата : Big
Идентификатор кодека : A_AC3
Продолжительность : 1 ч. 52 м.
Вид битрейта : Постоянный
Битрейт : 192 Кбит/сек
Каналы : 2 канала
Расположение каналов : Front: L R
Частота : 48,0 КГц
Битовая глубина : 16 бит
Метод сжатия : С потерями
Размер потока : 155 Мбайт (2%)
Заголовок : AVO (Сергей Визгунов)
Язык : Russian
Default : Нет
Forced : Нет
Аудио #6
Идентификатор : 7
Формат : AC-3
Формат/Информация : Audio Coding 3
Расширение режима : CM (complete main)
Параметр Endianness формата : Big
Идентификатор кодека : A_AC3
Продолжительность : 1 ч. 52 м.
Вид битрейта : Постоянный
Битрейт : 448 Кбит/сек
Каналы : 6 каналов
Расположение каналов : Front: L C R, Side: L R, LFE
Частота : 48,0 КГц
Битовая глубина : 16 бит
Метод сжатия : С потерями
Размер потока : 362 Мбайт (5%)
Заголовок : AVO (Андрей Гаврилов (ранний))
Язык : Russian
Default : Нет
Forced : Нет
Аудио #7
Идентификатор : 8
Формат : AC-3
Формат/Информация : Audio Coding 3
Расширение режима : CM (complete main)
Параметр Endianness формата : Big
Идентификатор кодека : A_AC3
Продолжительность : 1 ч. 52 м.
Вид битрейта : Постоянный
Битрейт : 448 Кбит/сек
Каналы : 6 каналов
Расположение каналов : Front: L C R, Side: L R, LFE
Частота : 48,0 КГц
Битовая глубина : 16 бит
Метод сжатия : С потерями
Размер потока : 362 Мбайт (5%)
Заголовок : AVO (Андрей Гаврилов (поздний))
Язык : Russian
Default : Нет
Forced : Нет
Аудио #8
Идентификатор : 9
Формат : AC-3
Формат/Информация : Audio Coding 3
Расширение режима : CM (complete main)
Параметр Endianness формата : Big
Идентификатор кодека : A_AC3
Продолжительность : 1 ч. 52 м.
Вид битрейта : Постоянный
Битрейт : 448 Кбит/сек
Каналы : 6 каналов
Расположение каналов : Front: L C R, Side: L R, LFE
Частота : 48,0 КГц
Битовая глубина : 16 бит
Метод сжатия : С потерями
Размер потока : 362 Мбайт (5%)
Заголовок : AVO (Юрий Сербин)
Язык : Russian
Default : Нет
Forced : Нет
Общее
Полное имя : D:VideoTupoj i eshe tupee.Unrated.1994.BDRip.720pTupoj i eshe tupee.Unrated.1994.DVO.rus.HTB.ac3
Формат : AC-3
Формат/Информация : Audio Coding 3
Размер файла : 155 Мбайт
Продолжительность : 1 ч. 52 м.
Режим общего битрейта : Постоянный
Общий поток : 192 Кбит/сек
Аудио
Формат : AC-3
Формат/Информация : Audio Coding 3
Расширение режима : CM (complete main)
Параметр Endianness формата : Big
Продолжительность : 1 ч. 52 м.
Вид битрейта : Постоянный
Битрейт : 192 Кбит/сек
Каналы : 2 канала
Расположение каналов : Front: L R
Частота : 48,0 КГц
Битовая глубина : 16 бит
Метод сжатия : С потерями
Размер потока : 155 Мбайт (100%)
Общее
Полное имя : D:VideoTupoj i eshe tupee.Unrated.1994.BDRip.720pTupoj i eshe tupee.Unrated.1994.DVO.rus.Пётр Гланц и Инна Королёва.dts
Формат : DTS
Формат/Информация : Digital Theater Systems
Размер файла : 1,19 Гбайт
Продолжительность : 1 ч. 52 м.
Режим общего битрейта : Постоянный
Общий поток : 1509 Кбит/сек
Аудио
Формат : DTS
Формат/Информация : Digital Theater Systems
Режим : 16
Параметр Endianness формата : Big
Продолжительность : 1 ч. 52 м.
Вид битрейта : Постоянный
Битрейт : 1509 Кбит/сек
Каналы : 6 каналов
Расположение каналов : Front: L C R, Side: L R, LFE
Частота : 48,0 КГц
Битовая глубина : 16 бит
Метод сжатия : С потерями
Размер потока : 1,19 Гбайт (100%)
Общее
Полное имя : D:VideoTupoj i eshe tupee.Unrated.1994.BDRip.720pTupoj i eshe tupee.Unrated.1994.eng.SDH.srt
Формат : SubRip
Размер файла : 101 Кбайт
Текст
Формат : SubRip
Метод сжатия : Без потерь
Общее
Полное имя : D:VideoTupoj i eshe tupee.Unrated.1994.BDRip.720pTupoj i eshe tupee.Unrated.1994.Original.eng.ac3
Формат : AC-3
Формат/Информация : Audio Coding 3
Размер файла : 517 Мбайт
Продолжительность : 1 ч. 52 м.
Режим общего битрейта : Постоянный
Общий поток : 640 Кбит/сек
Аудио
Формат : AC-3
Формат/Информация : Audio Coding 3
Расширение режима : CM (complete main)
Параметр Endianness формата : Big
Продолжительность : 1 ч. 52 м.
Вид битрейта : Постоянный
Битрейт : 640 Кбит/сек
Каналы : 6 каналов
Расположение каналов : Front: L C R, Side: L R, LFE
Частота : 48,0 КГц
Битовая глубина : 16 бит
Метод сжатия : С потерями
Размер потока : 517 Мбайт (100%)
Общее
Полное имя : D:VideoTupoj i eshe tupee.Unrated.1994.BDRip.720pTupoj i eshe tupee.Unrated.1994.rus.srt
Размер файла : 74,3 Кбайт
Общее
Полное имя : D:VideoTupoj i eshe tupee.Unrated.1994.BDRip.720pTupoj i eshe tupee.Unrated.1994.VO.rus.диктор CDV.ac3
Формат : AC-3
Формат/Информация : Audio Coding 3
Размер файла : 310 Мбайт
Продолжительность : 1 ч. 52 м.
Режим общего битрейта : Постоянный
Общий поток : 384 Кбит/сек
Аудио
Формат : AC-3
Формат/Информация : Audio Coding 3
Расширение режима : CM (complete main)
Параметр Endianness формата : Big
Продолжительность : 1 ч. 52 м.
Вид битрейта : Постоянный
Битрейт : 384 Кбит/сек
Каналы : 6 каналов
Расположение каналов : Front: L C R, Side: L R, LFE
Частота : 48,0 КГц
Битовая глубина : 16 бит
Метод сжатия : С потерями
Размер потока : 310 Мбайт (100%)
---[Information] [19.09.2014 21:04:15] raw [info]: 1280x720p 1:1 @ 24000/1001 fps (cfr)
---[Information] [19.09.2014 21:04:15] x264 [info]: using SAR=1/1
---[Information] [19.09.2014 21:04:15] x264 [info]: using cpu capabilities: MMX2 SSE2Fast SSSE3 SSE4.2
---[Information] [19.09.2014 21:04:15] x264 [info]: profile High, level 4.1
---[Information] [20.09.2014 4:55:40] x264 [info]: frame I:1140 Avg QP:17.11 size:118342
---[Information] [20.09.2014 4:55:40] x264 [info]: frame P:33547 Avg QP:18.44 size: 52928
---[Information] [20.09.2014 4:55:40] x264 [info]: frame B:127620 Avg QP:20.84 size: 24092
---[Information] [20.09.2014 4:55:40] x264 [info]: consecutive B-frames: 1.1% 0.9% 2.6% 34.4% 11.2% 43.7% 2.2% 3.3% 0.5%
---[Information] [20.09.2014 4:55:40] x264 [info]: mb I I16..4: 8.7% 76.4% 14.9%
---[Information] [20.09.2014 4:55:40] x264 [info]: mb P I16..4: 1.3% 23.0% 1.9% P16..4: 31.7% 25.4% 12.2% 0.0% 0.0% skip: 4.5%
---[Information] [20.09.2014 4:55:40] x264 [info]: mb B I16..4: 0.1% 3.4% 0.2% B16..8: 39.1% 13.9% 3.6% direct:10.9% skip:28.9% L0:42.4% L1:42.5% BI:15.1%
---[Information] [20.09.2014 4:55:40] x264 [info]: 8x8 transform intra:88.4% inter:58.4%
---[Information] [20.09.2014 4:55:40] x264 [info]: coded y,uvDC,uvAC intra: 95.2% 83.3% 56.1% inter: 37.6% 24.7% 2.7%
---[Information] [20.09.2014 4:55:40] x264 [info]: i16 v,h,dc,p: 32% 13% 17% 38%
---[Information] [20.09.2014 4:55:40] x264 [info]: i8 v,h,dc,ddl,ddr,vr,hd,vl,hu: 11% 9% 14% 8% 11% 12% 10% 12% 12%
---[Information] [20.09.2014 4:55:40] x264 [info]: i4 v,h,dc,ddl,ddr,vr,hd,vl,hu: 12% 9% 4% 9% 15% 16% 12% 12% 12%
---[Information] [20.09.2014 4:55:40] x264 [info]: i8c dc,h,v,p: 43% 24% 19% 14%
---[Information] [20.09.2014 4:55:40] x264 [info]: Weighted P-Frames: Y:5.4% UV:2.3%
---[Information] [20.09.2014 4:55:40] x264 [info]: ref P L0: 41.7% 11.3% 19.8% 7.0% 6.4% 4.4% 4.3% 2.4% 2.6% 0.2% 0.0%
---[Information] [20.09.2014 4:55:40] x264 [info]: ref B L0: 78.1% 10.1% 4.5% 2.5% 1.9% 1.6% 0.9% 0.4%
---[Information] [20.09.2014 4:55:40] x264 [info]: ref B L1: 94.8% 5.2%
---[Information] [20.09.2014 4:55:40] x264 [info]: kb/s:5891.17
---[Information] [20.09.2014 4:55:40] encoded 162307 frames, 5.74 fps, 5891.17 kb/s
---[Information] [20.09.2014 4:55:40] avs [info]: AviSynth 2.60, build:May 25 2011 [19:58:41]
---[Information] [20.09.2014 4:55:40] avs [info]: Video colorspace: YV12
---[Information] [20.09.2014 4:55:40] avs [info]: Video resolution: 1280x720
---[Information] [20.09.2014 4:55:40] avs [info]: Video framerate: 24000/1001
---[Information] [20.09.2014 4:55:40] avs [info]: Video framecount: 162307
---[Information] [20.09.2014 4:55:40] avs4x264 [info]: "x264_64" - --level 4.1 --tune film --crf 18.0 --keyint 230 --bframes 8 --b-adapt 2 --ref 9 --vbv-bufsize 50000 --vbv-maxrate 40000 --no-mbtree --merange 32 --me umh --subme 10 --trellis 2 --no-fast-pskip --sar 1:1 --output "D:RipTupoj i eshe tupee.1994.BDRipTupoj i eshe tupee.1994.BDRip.720p.mkv" --frames 162307 --fps 24000/1001 --input-res 1280x720 --input-csp i420
--[Information] [20.09.2014 4:55:41] Final statistics
---[Information] [20.09.2014 4:55:41] Constant Quality Mode: Quality 18 computed...
---[Information] [20.09.2014 4:55:41] Video Bitrate Obtained (approximate): 5892 kbit/s
--[Information] [20.09.2014 4:55:41] MediaInfo
---[Information] [20.09.2014 4:55:41] File: D:RipTupoj i eshe tupee.1994.BDRipTupoj i eshe tupee.1994.BDRip.720p.mkv

Скриншоты

[Профиль] [ЛС]
Показать сообщения:    

Текущее время: Сегодня 12:30

Часовой пояс: GMT



Вы не можете начинать темы
Вы не можете отвечать на сообщения
Вы не можете редактировать свои сообщения
Вы не можете удалять свои сообщения
Вы не можете голосовать в опросах
Вы не можете прикреплять файлы к сообщениям
Вы не можете скачивать файлы