Тупой и еще тупее тупого: Когда Гарри встретил Ллойда / Dumb and Dumberer: When Harry Met Lloyd (2003) HDTVRip 720p | D, P2

 
Автор Сообщение

sergej644 ®

Пол:

Стаж: 4 года 11 месяцев

Сообщений: 6039

Откуда: Soviet Union



Награды: Нет

Торрент-статистика

Создавать темы 30-Янв-2015 23:11

[Цитировать]

Информация о фильме
Название: Тупой и еще тупее тупого: Когда Гарри встретил Ллойда
Оригинальное название: Dumb and Dumberer: When Harry Met Lloyd
Год выхода: 2003
Жанр: Комедия
Режиссер: Трой Миллер
В ролях: Тимоти Стэк, Мими Роджерс, Вейн Федерман, Лукас Грегори, Дерек Ричардсон, Эрик Кристиан Олсен, Луис Гузман, Рэйчел Николс, Элден Хенсон, Юджин Леви, Шери Отери, Холли Таун, Джош Браатен, Ваге Манукян, Уильям Ли Скотт, Мишель Крусик, Шайа ЛаБаф, Тил Редманн, Карл Маццоконе, Талли Барр
О фильме:
Как же встретились два героя-недоумка Гарри и Ллойд, известные по фильму «Тупой и еще тупее»? Оба несколько лет не ходили в школу, а учились на дому. Пришло время отправляться в школу, и прямо на улице Гарри и Ллойд столкнулись лбами… А в это время школьный директор Коллинз и мисс Хеллер, буфетчица-официантка школьной столовой, задумали провернуть аферу — получить благотворительную премию в сто тысяч долларов за организацию класса для умственно отсталых. Злоумышленники решили создать липовый класс. Два кандидата в спецкласс нашлись сразу — Гарри и Ллойд, а они разыскали остальных…

Страна: США
Студия: Avery Pix, Burg/Koules Productions
Продолжительность: 01:21:13
Перевод: Дублированный, Профессиональный двухголосый (SDI Media)
Файл
Кодек: MPEG-4 AVC
Качество: HDTVRip 720p
Видео: 4100 Кбит/с, 1280x720, 25.000 кадр/с
Звук:
Аудио #1: Русский (АС3, 6 ch, 448 Кбит/с) / Дублированный
Аудио #2: Русский (АС3, 2 ch, 192 Кбит/с) / Профессиональный двухголосый (SDI Media)

Скриншоты

MI

Общее
Полное имя : Tupoj.i.ewe.tupee.tupogo.2003.x264.HDTVRip(720p).MediaClub.mkv
Формат : Matroska
Версия формата : Version 2
Размер файла : 2,70 Гбайт
Продолжительность : 1 ч. 21 м.
Общий поток : 4755 Кбит/сек
Название фильма : MediaClub
Дата кодирования : UTC 2014-07-18 13:47:39
Программа кодирования : mkvmerge v5.4.0 ('Piper') built on Mar 10 2012 13:34:39
Библиотека кодирования : libebml v1.2.3 + libmatroska v1.3.0
Видео
Идентификатор : 1
Формат : AVC
Формат/Информация : Advanced Video Codec
Профиль формата : High@L4.1
Параметр CABAC формата : Да
Параметр ReFrames формата : 9 кадров
Идентификатор кодека : V_MPEG4/ISO/AVC
Продолжительность : 1 ч. 21 м.
Битрейт : 4100 Кбит/сек
Ширина : 1280 пикселей
Высота : 720 пикселей
Соотношение сторон : 16:9
Режим частоты кадров : Постоянный
Частота кадров : 25,000 кадров/сек
Цветовое пространство : YUV
Субдискретизация насыщенности : 4:2:0
Битовая глубина : 8 бит
Тип развёртки : Прогрессивная
Бит/(Пиксели*Кадры) : 0.178
Размер потока : 2,28 Гбайт (85%)
Библиотека кодирования : x264 core 125 r2208 d9d2288
Настройки программы : cabac=1 / ref=9 / deblock=1:-3:-2 / analyse=0x3:0x133 / me=umh / subme=10 / psy=1 / psy_rd=1.00:0.20 / mixed_ref=1 / me_range=48 / chroma_me=1 / trellis=2 / 8x8dct=1 / cqm=0 / deadzone=21,11 / fast_pskip=0 / chroma_qp_offset=-3 / threads=6 / lookahead_threads=1 / sliced_threads=0 / nr=0 / decimate=0 / interlaced=0 / bluray_compat=0 / constrained_intra=0 / bframes=8 / b_pyramid=2 / b_adapt=2 / b_bias=0 / direct=3 / weightb=1 / open_gop=0 / weightp=2 / keyint=250 / keyint_min=25 / scenecut=40 / intra_refresh=0 / rc=2pass / mbtree=0 / bitrate=4100 / ratetol=1.0 / qcomp=0.60 / qpmin=0 / qpmax=69 / qpstep=4 / cplxblur=20.0 / qblur=0.5 / ip_ratio=1.40 / pb_ratio=1.30 / aq=1:1.00
Default : Да
Forced : Нет
Аудио #1
Идентификатор : 2
Формат : AC-3
Формат/Информация : Audio Coding 3
Расширение режима : CM (complete main)
Параметр Endianness формата : Big
Идентификатор кодека : A_AC3
Продолжительность : 1 ч. 21 м.
Вид битрейта : Постоянный
Битрейт : 448 Кбит/сек
Каналы : 6 каналов
Расположение каналов : Front: L C R, Side: L R, LFE
Частота : 48,0 КГц
Битовая глубина : 16 бит
Метод сжатия : С потерями
Задержка видео : 20 мс.
Размер потока : 261 Мбайт (9%)
Заголовок : Дублированный
Язык : Russian
Default : Да
Forced : Нет
Аудио #2
Идентификатор : 3
Формат : AC-3
Формат/Информация : Audio Coding 3
Расширение режима : CM (complete main)
Параметр Endianness формата : Big
Идентификатор кодека : A_AC3
Продолжительность : 1 ч. 21 м.
Вид битрейта : Постоянный
Битрейт : 192 Кбит/сек
Каналы : 2 канала
Расположение каналов : Front: L R
Частота : 48,0 КГц
Битовая глубина : 16 бит
Метод сжатия : С потерями
Размер потока : 112 Мбайт (4%)
Заголовок : Профессиональный двухголосый (SDI Media)
Язык : Russian
Default : Нет
Forced : Нет

Награды

Золотая малина, 2004 год
Номинации (3):
Худший сценарий
Худший ремейк/сиквел
Худшая экранная пара — «Эрик Кристиан Олсен и Дерек Ричардсон»
--
[Профиль] [ЛС]
Показать сообщения:    

Текущее время: Сегодня 16:36

Часовой пояс: GMT



Вы не можете начинать темы
Вы не можете отвечать на сообщения
Вы не можете редактировать свои сообщения
Вы не можете удалять свои сообщения
Вы не можете голосовать в опросах
Вы не можете прикреплять файлы к сообщениям
Вы не можете скачивать файлы