Тупик / Standoff (Адам Аллека / Adam Alleca) [2016, США, триллер, HDRip] MVO (Sunshine Studio & Parovoz Production)

 
Автор Сообщение

TorrentFilm ®

Пол:

Стаж: 2 года

Сообщений: 7741



Награды: Нет

Торрент-статистика

Создавать темы 04-Апр-2016 00:09

[Цитировать]

Тупик / Standoff
Страна: США
Жанр: Триллер
Год выпуска: 2016
Продолжительность: 01:26:02
Перевод: Любительский (многоголосый закадровый) Sunshine Studio & Parovoz Production
Cубтитры: нет
Оригинальная аудиодорожка: нет
Режиссер: Адам Аллека / Adam Alleca
В ролях: Томас Джейн, Лоренс Фишбёрн, Элла Бэллентайн, Джим Уотсон, Джон Тенч, Лаура ДеКартере, Тед Атертон, Джоанна Дуглас
Описание: Ветеран войны Картер с дробовиком наперевес вынужден защищать двенадцатилетнюю девочку, ставшую свидетелем убийства.
Группа желает всем приятного просмотра!
Качество видео: HDRip [BDRip 1080p]
Формат видео: AVI
Видео: 688x288 (2.39:1), 23.976 fps, XviD build 73 ~1030 kbps avg, 0.22 bit/pixel
Аудио: 48 kHz, MPEG Layer 3, 2 ch, ~128.00 kbps avg

Сэмпл: http://multi-up.com/1095799 Сравнение[url=viewtopic.php?t=5144407]http://torrentfilm.net/forum/viewtopic.php?t=5144407[/url]
http://screenshotcomparison.com/comparison/167872/picture:0

MediaInfo

General
Complete name : D:\Торренты\Standoff_Drek_Rutracker.org.avi
Format : AVI
Format/Info : Audio Video Interleave
File size : 720 MiB
Duration : 1h 26mn
Overall bit rate : 1 168 Kbps
Writing application : VirtualDubMod 1.5.10.2 (build 2540/release)
Writing library : VirtualDubMod build 2540/release
Video
ID : 0
Format : MPEG-4 Visual
Format profile : Advanced Simple@L5
Format settings, BVOP : 2
Format settings, QPel : No
Format settings, GMC : No warppoints
Format settings, Matrix : Custom
Codec ID : XVID
Codec ID/Hint : XviD
Duration : 1h 26mn
Bit rate : 1 030 Kbps
Width : 688 pixels
Height : 288 pixels
Display aspect ratio : 2.40:1
Frame rate : 23.976 (24000/1001) fps
Color space : YUV
Chroma subsampling : 4:2:0
Bit depth : 8 bits
Scan type : Progressive
Compression mode : Lossy
Bits/(Pixel*Frame) : 0.217
Stream size : 635 MiB (88%)
Writing library : XviD 73
Audio
ID : 1
Format : MPEG Audio
Format version : Version 1
Format profile : Layer 3
Codec ID : 55
Codec ID/Hint : MP3
Duration : 1h 26mn
Bit rate mode : Constant
Bit rate : 128 Kbps
Channel(s) : 2 channels
Sampling rate : 48.0 KHz
Compression mode : Lossy
Stream size : 78.8 MiB (11%)
Alignment : Aligned on interleaves
Interleave, duration : 42 ms (1.00 video frame)
Interleave, preload duratio : 504 ms
Writing library : LAME3.99r
Encoding settings : -m s -V 4 -q 2 -lowpass 17 -b 128

Скриншот c названием фильма

Скриншоты
[Профиль] [ЛС]
Показать сообщения:    

Текущее время: Сегодня 03:11

Часовой пояс: GMT



Вы не можете начинать темы
Вы не можете отвечать на сообщения
Вы не можете редактировать свои сообщения
Вы не можете удалять свои сообщения
Вы не можете голосовать в опросах
Вы не можете прикреплять файлы к сообщениям
Вы не можете скачивать файлы