Тряпичный союз (Михаил Местецкий) [2015, Россия, комедия, драма, WEB-DL 1080p] + Original Rus

 
Автор Сообщение

TorrentFilm ®

Пол:

Стаж: 2 года

Сообщений: 7741



Награды: Нет

Торрент-статистика

Создавать темы 30-Мар-2016 00:08

[Цитировать]

Тряпичный союз
Страна: Россия
Студия: Кинокомпания Коктебель
Жанр: комедия, драма
Год выпуска: 2015
Продолжительность: 01:38:40
Перевод: Не требуется
Cубтитры: нет
Оригинальная аудиодорожка: русский
Режиссер: Михаил Местецкий
В ролях: Иван Янковский, Александр Паль, Василий Буткевич, Павел Чинарёв, Анастасия Пронина, Федор Лавров, Елена Нестерова, Владислав Ветров, Кирилл Кяро, Андрей Крыжний
Описание: Жизнь тихого подростка Вани меняется после знакомства с тремя очень странными парнями. Спортсмены, хулиганы, мечтатели, они называют себя «Тряпичный Союз» и верят, что изменят весь мир. Очарованный новой дружбой, Ваня поселяет парней у себя на даче и всеми силами пытается стать частью их «величайшей организации». Но у соседской девочки Саши свои планы на эту компанию.

Sample
Тип релиза: WEB-DL 1080p
Контейнер: MKV
Видео: MPEG4 AVC Video, H264, 16:9, 1920x1080, 24 fps, 5088 kbps
Аудио: Russian (AC3, 6 ch, 384 kbps, 16 bits, 48.0 KHz) - оригинал

MediaInfo

General
Unique ID : 228609968945414598570058419612224792219 (0xABFCADB0B79CAE8B92D1E8776EFB269B)
Complete name : E:\Тряпичный союз 2015 WEB-DL 1080p.mkv
Format : Matroska
Format version : Version 4 / Version 2
File size : 3.85 GiB
Duration : 1h 38mn
Overall bit rate : 5 583 Kbps
Encoded date : UTC 2016-03-27 18:42:50
Writing application : mkvmerge v8.3.0 ('Over the Horizon') 64bit
Writing library : libebml v1.3.1 + libmatroska v1.4.2
DURATION : 01:38:40.352000000
NUMBER_OF_FRAMES : 185011
NUMBER_OF_BYTES : 284176896
_STATISTICS_WRITING_APP : mkvmerge v8.3.0 ('Over the Horizon') 64bit
_STATISTICS_WRITING_DATE_UTC : 2016-03-27 18:42:50
_STATISTICS_TAGS : BPS DURATION NUMBER_OF_FRAMES NUMBER_OF_BYTES
Video
ID : 1
Format : AVC
Format/Info : Advanced Video Codec
Format profile : High@L4.0
Format settings, CABAC : Yes
Format settings, ReFrames : 4 frames
Codec ID : V_MPEG4/ISO/AVC
Duration : 1h 38mn
Bit rate : 5 088 Kbps
Width : 1 920 pixels
Height : 1 080 pixels
Display aspect ratio : 16:9
Frame rate mode : Constant
Frame rate : 24.000 fps
Color space : YUV
Chroma subsampling : 4:2:0
Bit depth : 8 bits
Scan type : Progressive
Bits/(Pixel*Frame) : 0.102
Stream size : 3.51 GiB (91%)
Language : English
Default : Yes
Forced : No
Color primaries : BT.709
Transfer characteristics : BT.709
Matrix coefficients : BT.709
Audio
ID : 2
Format : AC-3
Format/Info : Audio Coding 3
Mode extension : CM (complete main)
Format settings, Endianness : Big
Codec ID : A_AC3
Duration : 1h 38mn
Bit rate mode : Constant
Bit rate : 384 Kbps
Channel count : 6 channels
Channel positions : Front: L C R, Side: L R, LFE
Sampling rate : 48.0 KHz
Bit depth : 16 bits
Compression mode : Lossy
Stream size : 271 MiB (7%)
Language : Russian
Default : Yes
Forced : No
Menu
00:00:00.000 : en:Глава 1
00:05:41.416 : en:Глава 2
00:10:54.499 : en:Глава 3
00:16:25.207 : en:Глава 4
00:21:54.582 : en:Глава 5
00:27:59.415 : en:Глава 6
00:33:46.206 : en:Глава 7
00:39:19.747 : en:Глава 8
00:44:42.580 : en:Глава 9
00:51:07.496 : en:Глава 10
00:56:24.496 : en:Глава 11
01:02:09.329 : en:Глава 12
01:07:27.620 : en:Глава 13
01:13:03.953 : en:Глава 14
01:18:55.036 : en:Глава 15
01:25:27.869 : en:Глава 16
01:31:48.119 : en:Глава 17

Скриншоты

[Профиль] [ЛС]
Показать сообщения:    

Текущее время: Сегодня 06:15

Часовой пояс: GMT



Вы не можете начинать темы
Вы не можете отвечать на сообщения
Вы не можете редактировать свои сообщения
Вы не можете удалять свои сообщения
Вы не можете голосовать в опросах
Вы не можете прикреплять файлы к сообщениям
Вы не можете скачивать файлы