Трюкач / The Stunt Man (1980) BDRip 1080р

 
Автор Сообщение

Russian Mafia ®

Пол:

Стаж: 1 год 8 месяцев

Сообщений: 4256



Награды: 10 (Подробнее)

Mega Seeder 1 (Количество: 1) За внесенный вклад в развитие сайта (Количество: 1) Top Releaser 2 (Количество: 1)
Торрент-статистика

Создавать темы 15-Сен-2015 08:19

[Цитировать]

Информация о фильме
Название: Трюкач
Оригинальное название: The Stunt Man
Год выхода: 1980
Жанр: Боевик, Драма
Режиссер: Ричард Раш
В ролях: Питер О`Тул, Стив Рэйлсбэк, Барбара Херши, Чак Бэйл, Аллен Гурвитц, Адам Рорк, Филлип Бранс, Шэрон Фэррелл, Алекс Рокко
О фильме:
Сбежавший из тюрьмы бедолага (Рэйлсбек) случайно попадает на съемочную площадку и становится виновником смерти главного каскадера. Режиссер (О`Тул) предлагает укрыть его, но только при условии, что тот займет место погибшего...

Страна: США
Продолжительность: 02:10:41
Перевод: Дубляж
Файл
Кодек: MPEG-4 AVC/H.264
Качество: BDRip [1080p]
Видео: 1920х1040, ~8072 Kbps, 23,976 fps
Звук: Аудио #1: русский (AC3, 2 ch, ~ 256 Kbps) Аудио #2: английский (DTS, 6 ch, ~ 1510 Kbps)
Субтитры: Нет

Mediainfo

Общее
Уникальный идентификатор : 223025339158407319568120137239007138594 (0xA7C91E2EF8BA1DC5B19F2BD965911322)
Полное имя : E:TempThe.Stunt.Man.(1980).[1080p].BDRip.x264.mkv
Формат : Matroska
Размер файла : 8,98 Гбайт
Продолжительность : 2 ч. 10 м.
Общий поток : 9840 Кбит/сек
Дата кодирования : UTC 2011-06-16 06:48:09
Программа кодирования : mkvmerge v3.3.0 ('Language') built on Mar 24 2010 14:59:24
Библиотека кодирования : libebml v0.8.0 + libmatroska v0.9.0
Видео
Идентификатор : 1
Формат : AVC
Формат/Информация : Advanced Video Codec
Профиль формата : High@L4.1
Параметр CABAC формата : Да
Параметр ReFrames формата : 4 кадры
Параметры GOP формата : M=1, N=2
Идентификатор кодека : V_MPEG4/ISO/AVC
Продолжительность : 2 ч. 10 м.
Битрейт : 8072 Кбит/сек
Ширина : 1920 пикс.
Высота : 1040 пикс.
Соотношение сторон : 16:9
Частота кадров : 23,976 кадр/сек
Цветовое пространство : YUV
Подвыборка цветности : 4:2:0
Битовая глубина : 8 бит
Тип развёртки : Прогрессивная
Бит/(Пиксели*Кадры) : 0.169
Размер потока : 7,19 Гбайт (80%)
Библиотека кодирования : x264 core 115 r1995 c1e60b9
Настройки программы : cabac=1 / ref=4 / deblock=1:0:0 / analyse=0x3:0x113 / me=umh / subme=8 / psy=1 / psy_rd=1.00:0.00 / mixed_ref=1 / me_range=16 / chroma_me=1 / trellis=1 / 8x8dct=1 / cqm=0 / deadzone=21,11 / fast_pskip=1 / chroma_qp_offset=-2 / threads=12 / sliced_threads=0 / nr=0 / decimate=1 / interlaced=0 / bluray_compat=0 / constrained_intra=0 / bframes=3 / b_pyramid=2 / b_adapt=2 / b_bias=0 / direct=3 / weightb=1 / open_gop=0 / weightp=2 / keyint=240 / keyint_min=24 / scenecut=40 / intra_refresh=0 / rc_lookahead=50 / rc=2pass / mbtree=1 / bitrate=8072 / ratetol=1.0 / qcomp=0.60 / qpmin=0 / qpmax=69 / qpstep=4 / cplxblur=20.0 / qblur=0.5 / ip_ratio=1.40 / aq=1:1.00
Язык : English
Аудио #1
Идентификатор : 2
Формат : AC-3
Формат/Информация : Audio Coding 3
Расширение режима : CM (complete main)
Идентификатор кодека : A_AC3
Продолжительность : 2 ч. 10 м.
Вид битрейта : Постоянный
Битрейт : 256 Кбит/сек
Канал(ы) : 2 канала(ов)
Расположение каналов : Front: L R
Частота : 48,0 КГц
Битовая глубина : 16 бит
Метод сжатия : С потерями
Размер потока : 239 Мбайт (3%)
Заголовок : DUB
Язык : Russian
Аудио #2
Идентификатор : 3
Формат : DTS
Формат/Информация : Digital Theater Systems
Идентификатор кодека : A_DTS
Продолжительность : 2 ч. 10 м.
Вид битрейта : Постоянный
Битрейт : 1510 Кбит/сек
Канал(ы) : 6 канала(ов)
Расположение каналов : Front: L C R, Side: L R, LFE
Частота : 48,0 КГц
Битовая глубина : 24 бит
Метод сжатия : С потерями
Задержка видео : 11 мс.
Размер потока : 1,38 Гбайт (15%)
Заголовок : ORIGINAL
Язык : English
Меню
00:00:00.000 : en:00:00:00.000
00:06:11.037 : en:00:06:11.037
00:10:53.820 : en:00:10:53.820
00:15:26.008 : en:00:15:26.008
00:23:28.490 : en:00:23:28.490
00:27:12.422 : en:00:27:12.422
00:34:15.845 : en:00:34:15.845
00:40:23.296 : en:00:40:23.296
00:48:07.968 : en:00:48:07.968
01:00:09.147 : en:01:00:09.147
01:08:11.087 : en:01:08:11.087
01:12:34.225 : en:01:12:34.225
01:20:25.279 : en:01:20:25.279
01:28:35.644 : en:01:28:35.644
01:31:20.600 : en:01:31:20.600
01:36:31.744 : en:01:36:31.744
01:46:46.859 : en:01:46:46.859
01:51:15.168 : en:01:51:15.168
01:56:40.785 : en:01:56:40.785
02:01:17.562 : en:02:01:17.562
[Профиль] [ЛС]
Показать сообщения:    

Текущее время: Сегодня 08:12

Часовой пояс: GMT



Вы не можете начинать темы
Вы не можете отвечать на сообщения
Вы не можете редактировать свои сообщения
Вы не можете удалять свои сообщения
Вы не можете голосовать в опросах
Вы не можете прикреплять файлы к сообщениям
Вы не можете скачивать файлы