Трэвис Хэйли. Адаптивный автомат Калашникова / Travis Haley: Adaptive Kalash [2011, Документальный, оружие, видеоурок, WEBRip 720p]

 
Автор Сообщение

TorrentFilm ®

Пол:

Стаж: 2 года

Сообщений: 7741



Награды: Нет

Торрент-статистика

Создавать темы 03-Авг-2015 00:06

[Цитировать]

Трэвис Хэйли. Адаптивный автомат Калашникова / Travis Haley: Adaptive Kalash
Дата/Год выпуска: 2011
Страна: США, Panteao Productions
Жанр: Документальный, оружие, видеоурок
Продолжительность: 02:00:46
Перевод: Любительский (одноголосый закадровый)
Доп. инфо о переводе: группа 222 с VК
Описание: Оружие должно обладать качествами: надежностью и простотой применения. Это секрет успеха, востребованности в любых условиях. Простота определяет и достаточно низкую стоимость. Автоматическое оружие, символизирующее все самые нужные характеристики – автомат Калашникова. И все же здесь все определяют навыки стрелка, его опыт. Оружие просто в обращении, но может творить чудеса в боевых условиях, если находится в руках профессионала. Ветеран морской разведки Трэвис Хэйли, он же инициатор образования компании Haley Strategic Partners в этом фильме выступает как специалист по оружию, знаток автомата Калашникова со всеми его тонкостями ухода, применения, тюнинга. Хэйли также расскажет интересные факты из истории АК, боеприпасах и всех особенностях стрельбы из АК.
У ведущего большой опыт использования автомата Калашникова. Трэвис Хэйли развенчает некоторые заблуждения и представит свой, немного субъективный взгляд на АК. Быть может, вы узнаете совершенно новое о всем известном автомате.
Доп. информация: Авторство релиза - alf62
Все благодарности за перевод группе 222 с VК

качество: WEBRip 720p
формат: MKV
Видео: AVC, 1200 Кбит/с, 1280х720
Аудио: Русский (АС3, 2 ch, 192 Кбит/с), Английский (АС3, 2 ch, 192 Кбит/с)

MediaInfo

Адаптивный.автомат.Калашникова.2011.WEB-Rip.alf62.mkvФормат : MatroskaВерсия формата : Version 4 / Version 2Размер файла : 1,32 ГбайтПродолжительность : 2 ч. 0 м.Общий поток : 1567 Кбит/секДата кодирования : UTC 2015-07-31 21:28:05Программа кодирования : mkvmerge v6.0.0 ('Coming Up For Air') built on Jan 20 2013 09:52:00Библиотека кодирования : libebml v1.3.0 + libmatroska v1.4.0
ВидеоИдентификатор : 1Формат : AVCФормат/Информация : Advanced Video CodecПрофиль формата : High@L4.0Параметр CABAC формата : ДаПараметр ReFrames формата : 8 кадровИдентификатор кодека : V_MPEG4/ISO/AVCПродолжительность : 2 ч. 0 м.Битрейт : 1200 Кбит/секШирина : 1280 пикселейВысота : 720 пикселейСоотношение сторон : 16:9Режим частоты кадров : ПостоянныйЧастота кадров : 24,000 кадра/секЦветовое пространство : YUVСубдискретизация насыщенности : 4:2:0Битовая глубина : 8 битТип развёртки : ПрогрессивнаяБит/(Пиксели*Кадры) : 0.054Размер потока : 995 Мбайт (74%)Библиотека кодирования : x264 core 130 r2273 b3065e6Настройки программы : cabac=1 / ref=8 / deblock=1:-1:-1 / analyse=0x3:0x133 / me=umh / subme=7 / psy=1 / psy_rd=1.00:0.10 / mixed_ref=1 / me_range=16 / chroma_me=1 / trellis=2 / 8x8dct=1 / cqm=0 / deadzone=21,11 / fast_pskip=0 / chroma_qp_offset=-3 / threads=6 / lookahead_threads=1 / sliced_threads=0 / nr=0 / decimate=1 / interlaced=0 / bluray_compat=0 / constrained_intra=0 / bframes=3 / b_pyramid=2 / b_adapt=2 / b_bias=0 / direct=3 / weightb=1 / open_gop=0 / weightp=2 / keyint=250 / keyint_min=23 / scenecut=40 / intra_refresh=0 / rc_lookahead=50 / rc=2pass / mbtree=1 / bitrate=1200 / ratetol=1.0 / qcomp=0.60 / qpmin=0 / qpmax=69 / qpstep=4 / cplxblur=20.0 / qblur=0.5 / ip_ratio=1.40 / aq=1:1.00Язык : EnglishDefault : НетForced : Нет
Аудио #1Идентификатор : 2Формат : AC-3Формат/Информация : Audio Coding 3Расширение режима : CM (complete main)Параметр Endianness формата : BigИдентификатор кодека : A_AC3Продолжительность : 2 ч. 0 м.Вид битрейта : ПостоянныйБитрейт : 192 Кбит/секКаналы : 2 каналаРасположение каналов : Front: L RЧастота : 48,0 КГцБитовая глубина : 16 битМетод сжатия : С потерямиРазмер потока : 166 Мбайт (12%)Язык : EnglishDefault : НетForced : Нет
Аудио #2Идентификатор : 3Формат : AC-3Формат/Информация : Audio Coding 3Расширение режима : CM (complete main)Параметр Endianness формата : BigИдентификатор кодека : A_AC3Продолжительность : 2 ч. 0 м.Вид битрейта : ПостоянныйБитрейт : 192 Кбит/секКаналы : 2 каналаРасположение каналов : Front: L RЧастота : 44,1 КГцБитовая глубина : 16 битМетод сжатия : С потерямиРазмер потока : 166 Мбайт (12%)Язык : EnglishDefault : НетForced : Нет

Скриншоты


[Профиль] [ЛС]
Кто просматривает тему:

Форум Тема Автор Размер
Фильмы 2011 года Бирюзовая роза / Turquoise Rose (Трэвис Холт Хэмилтон / Travis Holt Hamilton) [2007, США, Драма, DVDRip] AVO (Карповский) TorrentFilm 1.37 GB
Фильмы 2015 года Виселица / The Gallows (Трэвис Клафф, Крис Лофинг) [2015, Ужасы, триллер] HDRip | iTunes BOSS 1.45 GB
Фильмы 2009 года Конец игры / Endgame (Пит Трэвис / Pete Travis) [2009, Великобритания, драма, история, HDRip] VO (BBC Saint-Petersburg) + Sub Rus + Original Eng reversefile 2.19 GB
Фильмы 2016 года Лихорадка / Cabin Fever (Трэвис Заривны / Travis Zariwny) [2016, США, ужасы, WEB-DLRip] VO (Хихикающий доктор) + Original Eng TorrentFilm 1.46 GB
Флора и фауна Подводный мир Косумель / BluScenes : Underwater Cozumel (Рэнди Трэвис / Randy Travis) [2010, Документальный, релакс, BDRip-AVC] reversefile 1.37 GB
Фильмы 2014 года Последняя остановка / Don\'t Blink (Трэвис Оутс / Travis Oates) [2014, США, Ужасы, фантастика, детектив, WEB-DLRip] DVO TorrentFilm 698 MB
Фильмы 2015 года Посредник / The go-between (Пит Трэвис / Pete Travis) [2015, Великобритания, мелодрама, экранизация, HDTVRip] Sub Rus + Original Eng TorrentFilm 962 MB
Фильмы 2015 года Посредник / The go-between (Пит Трэвис) [2015, Драма] WEBRip | L1 BOSS 1.37 GB
Показать сообщения:    

Текущее время: Сегодня 14:30

Часовой пояс: GMT



Вы не можете начинать темы
Вы не можете отвечать на сообщения
Вы не можете редактировать свои сообщения
Вы не можете удалять свои сообщения
Вы не можете голосовать в опросах
Вы не можете прикреплять файлы к сообщениям
Вы не можете скачивать файлы