Трущобы Беверли Хиллз / Slums of Beverly Hills (Тамара Дженкинс) х1998, драма, комедия, BDRip] 1080p

 
Автор Сообщение

sergej644 ®

Пол:

Стаж: 4 года 11 месяцев

Сообщений: 6038

Откуда: Soviet Union



Награды: Нет

Торрент-статистика

Создавать темы 27-Май-2015 19:15

[Цитировать]

--Трущобы Беверли Хиллз / Slums of Beverly Hills
Название: Трущобы Беверли Хиллз
Оригинальное название: Slums of Beverly Hills
Год выпуска: 1998
Страна: США
Жанр: драма, комедия
Продолжительность: 01:31:06
Перевод: профессиональный многоголосый
Режиссёр: Тамара Дженкинс
В ролях: Наташа Лионн, Алан Аркин, Брина Уайсс, Мариса Томей, Шарлотта Стюарт, Эли Мариентал, Дэвид Крамхолц, Кевин Корригэн, Брендан Барнс, Харрис Ласкэвей
Описание: По дороге во взрослую жизнь Вивьен мучает несовместимость двух факторов в её жизни. С одной стороны, страшная подавленность, связанная с постоянными переездами её семьи, и полное отчаяние, когда шанс поселиться в школьном районе Беверли Хиллз улетучился, как дым, с другой — её сексуальный расцвет. Ко всему этому добавляется появление жиизнерадостной кузины, явившейся к Вивьен, чтобы помочь ей выпустить свою сексуальную энергию. Результат доказал, для того чтобы хорошо повеселиться, не обязательно быть богатым...

Качество: BDRip 1080p Сравнение с исходником
Формат: MKV
Видео: MPEG-4 AVC, 12.8 Mбит/с, 1920x1040, 23,976 кадра/с
Аудио 1: русский, AC3, 192 kbps, 2 ch, 48 kHz [профессиональный многоголосый, Лазер Видео]
Аудио 2: английский, DTS, 510 kbps, 2 ch, 48 kHz [оригинал]
Субтитры: английские

Инфо-файл

Общее
Уникальный идентификатор : 240006806397555522048874695484845001564 (0xB48FA128DD19E5EBB2C1987164D30B5C)
Полное имя : D:VideoТрущобы Беверли Хиллз.1998.BDRip.1080p.mkv
Формат : Matroska
Версия формата : Version 4 / Version 2
Размер файла : 8,77 Гбайт
Продолжительность : 1 ч. 31 м.
Общий поток : 13,8 Мбит/сек
Название фильма : BDRip -- STarankov
Дата кодирования : UTC 2015-05-25 05:06:10
Программа кодирования : mkvmerge v7.9.0 ('Birds') 64bit
Библиотека кодирования : libebml v1.3.1 + libmatroska v1.4.2
_STATISTICS_WRITING_APP : mkvmerge v7.9.0 ('Birds') 64bit
_STATISTICS_WRITING_DATE_UTC : 2015-05-25 05:06:10
_STATISTICS_TAGS : BPS DURATION NUMBER_OF_FRAMES NUMBER_OF_BYTES
DURATION : 01:31:06.166000000
NUMBER_OF_FRAMES : 512453
NUMBER_OF_BYTES : 348468104
Видео
Идентификатор : 1
Формат : AVC
Формат/Информация : Advanced Video Codec
Профиль формата : High@L4.1
Параметр CABAC формата : Да
Параметр ReFrames формата : 4 кадра
Идентификатор кодека : V_MPEG4/ISO/AVC
Продолжительность : 1 ч. 31 м.
Битрейт : 12,8 Мбит/сек
Ширина : 1920 пикселей
Высота : 1040 пикселей
Соотношение сторон : 1,85:1
Режим частоты кадров : Постоянный
Частота кадров : 23,976 кадра/сек
Цветовое пространство : YUV
Субдискретизация насыщенности : 4:2:0
Битовая глубина : 8 бит
Тип развёртки : Прогрессивная
Бит/(Пиксели*Кадры) : 0.267
Размер потока : 8,15 Гбайт (93%)
Библиотека кодирования : x264 core 146 r2538 121396c
Настройки программы : cabac=1 / ref=4 / deblock=1:-1:-1 / analyse=0x3:0x113 / me=umh / subme=10 / psy=1 / psy_rd=1.00:0.15 / mixed_ref=1 / me_range=32 / chroma_me=1 / trellis=2 / 8x8dct=1 / cqm=0 / deadzone=21,11 / fast_pskip=1 / chroma_qp_offset=-3 / threads=6 / lookahead_threads=1 / sliced_threads=0 / nr=0 / decimate=1 / interlaced=0 / bluray_compat=0 / constrained_intra=0 / bframes=13 / b_pyramid=2 / b_adapt=2 / b_bias=0 / direct=1 / weightb=1 / open_gop=0 / weightp=2 / keyint=230 / keyint_min=23 / scenecut=40 / intra_refresh=0 / rc_lookahead=40 / rc=crf / mbtree=0 / crf=20.0 / qcomp=0.60 / qpmin=0 / qpmax=69 / qpstep=4 / vbv_maxrate=40000 / vbv_bufsize=50000 / crf_max=0.0 / nal_hrd=none / filler=0 / ip_ratio=1.40 / pb_ratio=1.30 / aq=1:1.00
Язык : English
Default : Да
Forced : Нет
DURATION : 01:31:06.086000000
NUMBER_OF_FRAMES : 131055
NUMBER_OF_BYTES : 8935497765
_STATISTICS_WRITING_APP : mkvmerge v7.9.0 ('Birds') 64bit
_STATISTICS_WRITING_DATE_UTC : 2015-05-25 05:06:10
_STATISTICS_TAGS : BPS DURATION NUMBER_OF_FRAMES NUMBER_OF_BYTES
Аудио #1
Идентификатор : 2
Формат : AC-3
Формат/Информация : Audio Coding 3
Расширение режима : CM (complete main)
Параметр Endianness формата : Big
Идентификатор кодека : A_AC3
Продолжительность : 1 ч. 31 м.
Вид битрейта : Постоянный
Битрейт : 192 Кбит/сек
Каналы : 2 канала
Расположение каналов : Front: L R
Частота : 48,0 КГц
Битовая глубина : 16 бит
Метод сжатия : С потерями
Размер потока : 125 Мбайт (1%)
Заголовок : MVO (Лазер Видео)
Язык : Russian
Default : Да
Forced : Нет
Аудио #2
Идентификатор : 3
Формат : DTS
Формат/Информация : Digital Theater Systems
Режим : 16
Параметр Endianness формата : Big
Идентификатор кодека : A_DTS
Продолжительность : 1 ч. 31 м.
Вид битрейта : Постоянный
Битрейт : 510 Кбит/сек
Каналы : 2 канала
Расположение каналов : Front: L R
Частота : 48,0 КГц
Битовая глубина : 16 бит
Метод сжатия : С потерями
Размер потока : 332 Мбайт (4%)
Заголовок : Original
Язык : English
Default : Нет
Forced : Нет
Текст
Идентификатор : 4
Формат : UTF-8
Идентификатор кодека : S_TEXT/UTF8
Идентификатор кодека/Информация : UTF-8 Plain Text
Заголовок : английские
Язык : English
Default : Нет
Forced : Нет

Скриншоты

[Профиль] [ЛС]
Кто просматривает тему:

Форум Тема Автор Размер
Фильмы (HD Rips | 720p, 1080p) Красавица из трущоб / Trishna (2011) BDRip 720p от ivandubskoj Russian Mafia 4.37 GB
Фильмы (HD Rips | 720p, 1080p) Миллионер из трущоб / Slumdog Millionaire (2008) BDRip 720p | Лицензия sergej644 5.35 GB
Фильмы 2006-2008 года Миллионер из трущоб / Slumdog Millionaire (Дэнни Бойл / Danny Boyle, Лавлин Тандан / Loveleen Tandan) [2008, Великобритания, драма, мелодрама, BDRip-AVC] Dub + AVO (Ю. Сербин) + Sub Rus, Eng +... TorrentFilm 4.69 GB
Фильмы 2006-2008 года Миллионер из трущоб / Slumdog Millionaire (Дэнни Бойл / Danny Boyle, Лавлин Тандан / Loveleen Tandan) [2008, Великобритания, драма, мелодрама, BDRip] Dub + Sub Rus + Original Eng TorrentFilm 2.18 GB
Фильмы (HD DVD, Blu-ray и BDRemux) Миллионер из трущоб / Slumdog Millionaire (Дэнни Бойл / Danny Boyle, Лавлин Тандан / Loveleen Tandan) [2008, Великобритания, драма, мелодрама, Blu-ray disc 1080p] [RUS] Dub + Sub Rus + Original Eng Russian Mafia 38.12 GB
Фильмы 2006-2008 года Миллионер из трущоб / Slumdog Millionaire (Дэнни Бойл / Danny Boyle, Лавлин Тандан / Loveleen Tandan) [2008, Великобритания, США, драма, мелодрама, DVB] Dub TorrentFilm 1.98 GB
Фильмы 2006-2008 года Миллионер из трущоб / Slumdog Millionaire (Дэнни Бойл / Danny Boyle, Лавлин Тандан / Loveleen Tandan) [2008, Великобритания, США, драма, мелодрама, SATRip] Dub TorrentFilm 749 MB
Фильмы 2006-2008 года Миллионер из трущоб / Slumdog Millionaire (Дэнни Бойл / Danny Boyle, Лавлин Тандан / Loveleen Tandan) [2008, Великобритания, США, триллер, драма, мелодрама, HDRip] Dub TorrentFilm 1.45 GB
Показать сообщения:    

Текущее время: Сегодня 10:31

Часовой пояс: GMT



Вы не можете начинать темы
Вы не можете отвечать на сообщения
Вы не можете редактировать свои сообщения
Вы не можете удалять свои сообщения
Вы не можете голосовать в опросах
Вы не можете прикреплять файлы к сообщениям
Вы не можете скачивать файлы