Трудная мишень 2 / Hard Target 2 (2016) BDRip 1080p от HDClub | Лицензия

 
Автор Сообщение

Russian Mafia ®

Пол:

Стаж: 1 год 8 месяцев

Сообщений: 4257



Награды: 10 (Подробнее)

Mega Seeder 5 (Количество: 1) Mega Seeder 4 (Количество: 1) Mega Seeder 2 (Количество: 1)
Торрент-статистика

Создавать темы 29-Авг-2016 19:08

[Цитировать]

Информация о фильме
Название: Трудная мишень 2
Оригинальное название: Hard Target 2
Год выхода: 2016
Жанр: Боевик, триллер
Режиссер: Роэль Рейн
В ролях: Скотт Эдкинс, Роберт Неппер, Рона Митра, Темуэра Моррисон, Адам Саундерс, Джэйми Тимони, Питер Харди, Шон Кинэн
О фильме:
Продолжение культового экшн-триллера 1993 года о подпольных игрищах, где проплаченные «охотники» травят, как дичь, похищенных людей. Новой мишенью становится опальный мастер боевых искусств, который соблазнился деньгами, даже не подозревая, на что подписывается. Но и его преследователи еще не знают, с кем связались.

Страна: США
Студия: Living Films, Universal 1440 Entertainment
Продолжительность: 01:43:33
Перевод: Профессиональный (полное дублирование)
Файл
Качество: BDRip 1080p
Формат: MKV
Кодек: MPEG-4 AVC
Видео: 1920x1080 (16:9), 23,976 fps, MPEG-4 AVC ~22,5 Мbps avg, 0.453 bit/pixel
Аудио#1: AC3, 48 kHz, 6 ch, ~448.00 kbps avg | русский | Профессиональный (полное дублирование)
Аудио#2: DTS, 48 kHz, 6 ch, ~1509.00 kbps avg | английский | Оригинал
Субтитры: Английские, русские
Семпл

Инфо-файл

Общее
Уникальный идентификатор : 185921753340141277956141736798137401322 (0x8BDF3A2A3E2EFB3E99625232FA24BFEA)
Полное имя : Hard.Target.2.2016.1080p.BluRay.Rus.Eng-HDCLUB.mkv
Формат : Matroska
Версия формата : Version 4 / Version 2
Размер файла : 17,7 Гбайт
Продолжительность : 1 ч. 43 м.
Общий поток : 24,5 Мбит/сек
Название фильма : Hard Target 2 (2016) - Release for HDCLUB
Дата кодирования : UTC 2016-08-28 20:55:05
Программа кодирования : mkvmerge v8.1.0 ('Psychedelic Postcard') 32bit
Библиотека кодирования : libebml v1.3.1 + libmatroska v1.4.2
Видео
Идентификатор : 1
Формат : AVC
Формат/Информация : Advanced Video Codec
Профиль формата : High@L4.1
Параметр CABAC формата : Да
Параметр ReFrames формата : 4 кадра
Идентификатор кодека : V_MPEG4/ISO/AVC
Продолжительность : 1 ч. 43 м.
Битрейт : 22,5 Мбит/сек
Ширина : 1920 пикселей
Высота : 1080 пикселей
Соотношение сторон : 16:9
Режим частоты кадров : Постоянный
Частота кадров : 23,976 (24000/1001) кадра/сек
Цветовое пространство : YUV
Субдискретизация насыщенности : 4:2:0
Битовая глубина : 8 бит
Тип развёртки : Прогрессивная
Бит/(Пиксели*Кадры) : 0.453
Размер потока : 16,3 Гбайт (92%)
Библиотека кодирования : x264 core 148 r2705 3f5ed56
Настройки программы : cabac=1 / ref=4 / deblock=1:-3:-3 / analyse=0x3:0x133 / me=umh / subme=10 / psy=1 / psy_rd=1.00:0.00 / mixed_ref=1 / me_range=32 / chroma_me=1 / trellis=2 / 8x8dct=1 / cqm=0 / deadzone=21,11 / fast_pskip=0 / chroma_qp_offset=-2 / threads=18 / lookahead_threads=3 / sliced_threads=0 / slices=4 / nr=0 / decimate=0 / interlaced=0 / bluray_compat=0 / constrained_intra=0 / bframes=8 / b_pyramid=2 / b_adapt=2 / b_bias=0 / direct=3 / weightb=1 / open_gop=0 / weightp=2 / keyint=250 / keyint_min=23 / scenecut=40 / intra_refresh=0 / rc_lookahead=40 / rc=2pass / mbtree=0 / bitrate=22500 / ratetol=1.0 / qcomp=0.65 / qpmin=0 / qpmax=51 / qpstep=4 / cplxblur=20.0 / qblur=0.5 / vbv_maxrate=62500 / vbv_bufsize=78125 / nal_hrd=none / filler=0 / ip_ratio=1.40 / pb_ratio=1.30 / aq=3:0.75 / zones=0,446,b=2
Язык : English
Default : Да
Forced : Нет
Аудио #1
Идентификатор : 2
Формат : AC-3
Формат/Информация : Audio Coding 3
Расширение режима : CM (complete main)
Параметр Endianness формата : Big
Идентификатор кодека : A_AC3
Продолжительность : 1 ч. 43 м.
Вид битрейта : Постоянный
Битрейт : 448 Кбит/сек
Каналы : 6 каналов
Расположение каналов : Front: L C R, Side: L R, LFE
Частота : 48,0 КГц
Частота кадров : 31,250 кадров/сек (1536 spf)
Метод сжатия : С потерями
Размер потока : 332 Мбайт (2%)
Заголовок : Blu-ray CEE
Язык : Russian
Default : Да
Forced : Нет
Аудио #2
Идентификатор : 3
Формат : DTS
Формат/Информация : Digital Theater Systems
Режим : 16
Параметр Endianness формата : Big
Идентификатор кодека : A_DTS
Продолжительность : 1 ч. 43 м.
Вид битрейта : Постоянный
Битрейт : 1509 Кбит/сек
Каналы : 6 каналов
Расположение каналов : Front: L C R, Side: L R, LFE
Частота : 48,0 КГц
Частота кадров : 93,750 кадра/сек (512 spf)
Битовая глубина : 24 бит
Метод сжатия : С потерями
Размер потока : 1,09 Гбайт (6%)
Язык : English
Default : Нет
Forced : Нет
Текст #1
Идентификатор : 4
Формат : UTF-8
Идентификатор кодека : S_TEXT/UTF8
Идентификатор кодека/Информация : UTF-8 Plain Text
Продолжительность : 1 ч. 42 м.
Битрейт : 56 бит/сек
Count of elements : 838
Размер потока : 42,4 Кбайт (0%)
Заголовок : Blu-ray CEE
Язык : Russian
Default : Нет
Forced : Нет
Текст #2
Идентификатор : 5
Формат : UTF-8
Идентификатор кодека : S_TEXT/UTF8
Идентификатор кодека/Информация : UTF-8 Plain Text
Продолжительность : 1 ч. 39 м.
Битрейт : 34 бит/сек
Count of elements : 873
Размер потока : 25,3 Кбайт (0%)
Заголовок : English
Язык : English
Default : Нет
Forced : Нет
Текст #3
Идентификатор : 6
Формат : UTF-8
Идентификатор кодека : S_TEXT/UTF8
Идентификатор кодека/Информация : UTF-8 Plain Text
Продолжительность : 1 ч. 41 м.
Битрейт : 38 бит/сек
Count of elements : 1055
Размер потока : 28,9 Кбайт (0%)
Заголовок : English SDH
Язык : English
Default : Нет
Forced : Нет
Меню
00:00:00.000 : en:1
00:04:20.260 : en:2
00:11:08.042 : en:3
00:14:49.889 : en:4
00:19:39.345 : en:5
00:22:42.778 : en:6
00:29:22.135 : en:7
00:34:33.780 : en:8
00:39:10.265 : en:9
00:44:59.113 : en:10
00:49:06.318 : en:11
00:54:23.260 : en:12
00:58:45.981 : en:13
01:04:09.054 : en:14
01:09:10.396 : en:15
01:17:46.203 : en:16
01:22:19.935 : en:17
01:27:10.434 : en:18
01:31:24.396 : en:19
01:40:24.018 : en:20

Скриншоты

Релиз от:
[Профиль] [ЛС]
Показать сообщения:    

Текущее время: Сегодня 21:34

Часовой пояс: GMT



Вы не можете начинать темы
Вы не можете отвечать на сообщения
Вы не можете редактировать свои сообщения
Вы не можете удалять свои сообщения
Вы не можете голосовать в опросах
Вы не можете прикреплять файлы к сообщениям
Вы не можете скачивать файлы