Трудная мишень 2 / Hard Target 2 (2016) BDRemux 1080p | Лицензия

 
Автор Сообщение

достали все ®

Пол:

Стаж: 1 год 8 месяцев

Сообщений: 6565



Награды: 12 (Подробнее)

Top Releaser 2 (Количество: 1) Mega Releaser 3 (Количество: 1) Mega Seeder 1 (Количество: 1)
Торрент-статистика

Создавать темы 26-Авг-2016 02:57

[Цитировать]

Информация о фильме
Название: Трудная мишень 2
Оригинальное название: Hard Target 2
Год выхода: 2016
Жанр: Боевик, триллер
Режиссер: Роэль Рейн
В ролях: Скотт Эдкинс, Роберт Неппер, Рона Митра, Темуэра Моррисон, Адам Саундерс, Джэйми Тимони, Питер Харди, Шон Кинэн
О фильме:
Продолжение культового экшн-триллера 1993 года о подпольных игрищах, где проплаченные «охотники» травят, как дичь, похищенных людей. Новой мишенью становится опальный мастер боевых искусств, который соблазнился деньгами, даже не подозревая, на что подписывается. Но и его преследователи еще не знают, с кем связались.

Страна: США
Студия: Living Films, Universal 1440 Entertainment
Продолжительность: 01:43:33
Перевод: Дублированный | Лицензия Blu-Ray CEE
Файл
Кодек: MPEG-4
Качество: BDRemux 1080p
Видео: 1920x1080, 17.5 Mbit/s, 23.976 fps
Звук:
Аудио #01: 48 kHz, AC3, 5.1, 448 Kbps | Дублированный | Лицензия Blu-Ray CEE |
Аудио #02: 48 kHz, DTS-HD MA, 5.1, 640 kbps | Оригинал |

MI

General
Unique ID : 253086472053651470627331306607127137395 (0xBE66AE77185024BBB992A9DABC398C73)
Complete name : G:VideoHard.Target.2.2016.BDREMUX.1080p.ExKinoRay.mkv
Format : Matroska
Format version : Version 4 / Version 2
File size : 16.2 GiB
Duration : 1 h 43 min
Overall bit rate mode : Variable
Overall bit rate : 22.4 Mb/s
Movie name : Hard.Target.2.2016.BDREMUX.1080p.ExKinoRay
Encoded date : UTC 2016-08-26 00:33:11
Writing application : mkvmerge v8.3.0 ('Over the Horizon') 64bit
Writing library : libebml v1.3.1 + libmatroska v1.4.2
Video
ID : 1
Format : AVC
Format/Info : Advanced Video Codec
Format profile : High@L4.1
Format settings, CABAC : Yes
Format settings, ReFrames : 2 frames
Codec ID : V_MPEG4/ISO/AVC
Duration : 1 h 43 min
Bit rate mode : Variable
Bit rate : 17.5 Mb/s
Maximum bit rate : 34.7 Mb/s
Width : 1 920 pixels
Height : 1 080 pixels
Display aspect ratio : 16:9
Frame rate mode : Constant
Frame rate : 23.976 (24000/1001) FPS
Color space : YUV
Chroma subsampling : 4:2:0
Bit depth : 8 bits
Scan type : Progressive
Bits/(Pixel*Frame) : 0.352
Stream size : 12.7 GiB (78%)
Language : English
Default : Yes
Forced : No
Audio #1
ID : 2
Format : AC-3
Format/Info : Audio Coding 3
Mode extension : CM (complete main)
Format settings, Endianness : Big
Codec ID : A_AC3
Duration : 1 h 43 min
Bit rate mode : Constant
Bit rate : 448 kb/s
Channel(s) : 6 channels
Channel positions : Front: L C R, Side: L R, LFE
Sampling rate : 48.0 kHz
Frame rate : 31.250 FPS (1536 spf)
Compression mode : Lossy
Stream size : 332 MiB (2%)
Language : Russian
Default : Yes
Forced : No
Audio #2
ID : 3
Format : DTS
Format/Info : Digital Theater Systems
Format profile : MA / Core
Mode : 16
Format settings, Endianness : Big
Codec ID : A_DTS
Duration : 1 h 43 min
Bit rate mode : Variable / Constant
Bit rate : 4 438 kb/s / 1 509 kb/s
Channel(s) : 6 channels
Channel positions : Front: L C R, Side: L R, LFE
Sampling rate : 48.0 kHz
Frame rate : 93.750 FPS (512 spf)
Bit depth : 24 bits
Compression mode : Lossless / Lossy
Stream size : 3.21 GiB (20%)
Language : English
Default : No
Forced : No
Menu
00:00:00.000 : en:Chapter 01
00:05:23.281 : en:Chapter 02
00:10:12.987 : en:Chapter 03
00:15:53.202 : en:Chapter 04
00:20:13.546 : en:Chapter 05
00:23:41.462 : en:Chapter 06
00:28:51.229 : en:Chapter 07
00:33:30.383 : en:Chapter 08
00:39:37.208 : en:Chapter 09
00:45:05.286 : en:Chapter 10
00:49:43.105 : en:Chapter 11
00:53:26.954 : en:Chapter 12
00:58:40.392 : en:Chapter 13
01:02:42.467 : en:Chapter 14
01:08:22.598 : en:Chapter 15
01:12:51.075 : en:Chapter 16
01:17:35.401 : en:Chapter 17
01:20:58.270 : en:Chapter 18
01:26:11.500 : en:Chapter 19
01:31:42.247 : en:Chapter 20

Скриншоты

Автор релиза:
[Профиль] [ЛС]
Показать сообщения:    

Текущее время: Сегодня 10:32

Часовой пояс: GMT



Вы не можете начинать темы
Вы не можете отвечать на сообщения
Вы не можете редактировать свои сообщения
Вы не можете удалять свои сообщения
Вы не можете голосовать в опросах
Вы не можете прикреплять файлы к сообщениям
Вы не можете скачивать файлы