Труба (Геннадий Семенов) [1981, Рисованный мультфильм, TVRip]

 
Автор Сообщение

TorrentFilm ®

Пол:

Стаж: 2 года

Сообщений: 7741



Награды: Нет

Торрент-статистика

Создавать темы 03-Янв-2016 00:05

[Цитировать]

Труба
Страна: СССР
Жанр: Рисованный мультфильм
Продолжительность: 00:07:29
Год выпуска: 1981
Русские субтитры: нет
Режиссёр: Геннадий Семенов
Описание: «Вьезжают люди в новый дом. Прекрасный дом – все ладно в нем, но так бывает иногда – чего-то, кто-то не учел, забыл, прошляпил, не довел… »
(Мультипликационный фильм для взрослых о разгильдяйстве в строительстве.)
PS Очень актуальный фильм!
Доп. информация: „Беларусьфильм“
Композитор:А.Сигалова
Оператор:Ю.Мильтнер
Монтаж:Н.Волчек
Художник-постановщик:Г.Семёнов
Раздача группы:
Качество: TVRip
Формат: AVI
Видео: 720x544 (1.32:1), 25 fps, XviD Final 1.0 (build 34) ~2227 kbps avg, 0.23 bit/pixel
Аудио: 48 kHz, MPEG Layer 3, 2 ch, ~128.00 kbps avg
Субтитры: нет

Подробные технические данные

Format : AVIFormat/Info : Audio Video InterleaveFile size : 127 MiBDuration : 7mn 29sOverall bit rate : 2 365 KbpsWriting application : VirtualDubMod 1.5.4.1 (build 2178/release)Writing library : VirtualDubMod build 2178/release
VideoID : 0Format : MPEG-4 VisualFormat profile : Advanced Simple@L5Format settings, BVOP : 1Format settings, QPel : NoFormat settings, GMC : No warppointsFormat settings, Matrix : CustomCodec ID : XVIDCodec ID/Hint : XviDDuration : 7mn 29sBit rate : 2 227 KbpsWidth : 720 pixelsHeight : 544 pixelsDisplay aspect ratio : 4:3Frame rate : 25.000 fpsColor space : YUVChroma subsampling : 4:2:0Bit depth : 8 bitsScan type : ProgressiveCompression mode : LossyBits/(Pixel*Frame) : 0.227Stream size : 119 MiB (94%)Writing library : XviD 1.0.0 (UTC 2004-05-09)
AudioID : 1Format : MPEG AudioFormat version : Version 1Format profile : Layer 3Mode : Joint stereoMode extension : MS StereoCodec ID : 55Codec ID/Hint : MP3Duration : 7mn 29sBit rate mode : ConstantBit rate : 128 KbpsChannel(s) : 2 channelsSampling rate : 48.0 KHzCompression mode : LossyStream size : 6.87 MiB (5%)Alignment : Aligned on interleavesInterleave, duration : 40 ms (1.00 video frame)Interleave, preload duration : 504 ms

Скриншоты

[Профиль] [ЛС]
Показать сообщения:    

Текущее время: Сегодня 20:41

Часовой пояс: GMT



Вы не можете начинать темы
Вы не можете отвечать на сообщения
Вы не можете редактировать свои сообщения
Вы не можете удалять свои сообщения
Вы не можете голосовать в опросах
Вы не можете прикреплять файлы к сообщениям
Вы не можете скачивать файлы