(Шансон) Трофим (Сергей Трофимов) - Серия «SUPER HITS COLLECTION. 20 лучших песен» - 2012, FLAC (image+.cue), lossless

 
Автор Сообщение

sergej644 ®

Пол:

Стаж: 4 года 11 месяцев

Сообщений: 6046

Откуда: Soviet Union



Награды: Нет

Торрент-статистика

Создавать темы 14-Июл-2015 04:37

[Цитировать]

Трофим (Сергей Трофимов) / Серия «SUPER HITS COLLECTION. 20 лучших песен»
Жанр: Шансон
Страна-производитель диска: Россия
Год издания: 2012
Издатель (лейбл): Классик Компани
Номер по каталогу: СС CD 64/12
Страна: Россия
Аудиокодек: FLAC (*.flac)
Тип рипа: image+.cue
Битрейт аудио: lossless
Продолжительность: 01:16:40
Источник (релизер): STOJAK
Наличие сканов в содержимом раздачи: да (PNG)
Треклист:
01. "Эх, дал бы кто взаймы (Музыка и стихи Сергей Трофимов)"
02. "Ветер в голове (Музыка и стихи Сергей Трофимов)"
03. "Снегири (Музыка и стихи Сергей Трофимов)"
04. "Дальнобойная (Музыка и стихи Сергей Трофимов)"
05. "Столичная (Музыка и стихи Сергей Трофимов)"
06. "Я скучаю по тебе (Музыка и стихи Сергей Трофимов)"
07. "Аты - баты (Музыка и стихи Сергей Трофимов)"
08. "Горько (Музыка и стихи Сергей Трофимов)"
09. "Просто так (Музыка и стихи Сергей Трофимов)"
10. "Песня о Ленине (Музыка и стихи Сергей Трофимов)"
11. "Судьба (Музыка и стихи Сергей Трофимов)"
12. "Пожалей меня, пожалей (Музыка и стихи Сергей Трофимов)"
13. "Самарский реггей (Музыка и стихи Сергей Трофимов)"
14. "Ветерок (Музыка и стихи Сергей Трофимов)"
15. "Алёшка (Музыка и стихи Сергей Трофимов)"
16. "Крылья (Музыка и стихи Сергей Трофимов)"
17. "Я уже устал (Музыка и стихи Сергей Трофимов)"
18. "Колыбельная (Музыка и стихи Сергей Трофимов)"
19. "Для России (Музыка и стихи Сергей Трофимов)"
20. "На краю (Музыка и стихи Сергей Трофимов)"

Отчёт EAC об извлечении, выполненном 13. декабря 2012, 8:05

Exact Audio Copy V1.0 beta 2 from 29. April 2011
Отчёт EAC об извлечении, выполненном 13. декабря 2012, 8:05
Трофим (Сергей Трофимов) / Серия «SUPER HITS COLLECTION. 20 лучших песен»
Дисковод: Optiarc DVD RW AD-7190A   Adapter: 0  ID: 0
Режим чтения                 : Достоверность
Использование точного потока : Да
Отключение кэша аудио        : Да
Использование указателей C2  : Нет
Коррекция смещения при чтении                     : 6
Способность читать области Lead-in и Lead-out     : Нет
Заполнение пропущенных сэмплов тишиной            : Да
Удаление блоков с тишиной в начале и конце        : Нет
При вычислениях CRC использовались нулевые сэмплы : Да
Интерфейс                                         : Встроенный Win32-интерфейс для Win NT/2000
Выходной формат : Внутренние WAV-операции
Формат сэмплов  : 44.100 Гц; 16 бит; стерео
TOC извлечённого CD
     Трек |   Старт  | Длительность | Начальный сектор | Конечный сектор
    ---------------------------------------------------------------------
       1  |  0:00.00 |    3:45.73   |           0      |      16947
       2  |  3:45.73 |    4:12.60   |       16948      |      35907
       3  |  7:58.58 |    2:59.59   |       35908      |      49391
       4  | 10:58.42 |    3:14.60   |       49392      |      64001
       5  | 14:13.27 |    3:22.71   |       64002      |      79222
       6  | 17:36.23 |    4:26.27   |       79223      |      99199
       7  | 22:02.50 |    2:06.17   |       99200      |     108666
       8  | 24:08.67 |    4:27.42   |      108667      |     128733
       9  | 28:36.34 |    4:58.01   |      128734      |     151084
      10  | 33:34.35 |    3:37.24   |      151085      |     167383
      11  | 37:11.59 |    3:29.22   |      167384      |     183080
      12  | 40:41.06 |    4:14.27   |      183081      |     202157
      13  | 44:55.33 |    4:07.01   |      202158      |     220683
      14  | 49:02.34 |    3:38.74   |      220684      |     237107
      15  | 52:41.33 |    3:21.55   |      237108      |     252237
      16  | 56:03.13 |    4:46.13   |      252238      |     273700
      17  | 60:49.26 |    4:27.52   |      273701      |     293777
      18  | 65:17.03 |    3:22.61   |      293778      |     308988
      19  | 68:39.64 |    4:40.66   |      308989      |     330054
      20  | 73:20.55 |    3:19.42   |      330055      |     345021
Характеристики диапазона извлечения и сообщения об ошибках
Выбранный диапазон
     Имя файла E:\ШАНСОН\SCHANSON [SBORNIKI] LOSSLESS\СЕРИЯ «SUPER HITS COLLECTION» (с) 2012-2014 [20CD]\[2012] ТРОФИМОВ СЕРГЕЙ «SUPER HITS COLLECTION. 20 лучших песен»\Трофим (Сергей Трофимов) - Серия «SUPER HITS COLLECTION. 20 лучших песен».wav
     Пиковый уровень 100.0 %
     Скорость извлечения 7.9 X
     Качество диапазона 100.0 %
     CRC теста DA71807B
     CRC копии DA71807B
     Копирование... OK
Ошибок не произошло
AccurateRip: сводка
Трек  1  отсутствует в базе данных
Трек  2  отсутствует в базе данных
Трек  3  отсутствует в базе данных
Трек  4  отсутствует в базе данных
Трек  5  отсутствует в базе данных
Трек  6  отсутствует в базе данных
Трек  7  отсутствует в базе данных
Трек  8  отсутствует в базе данных
Трек  9  отсутствует в базе данных
Трек 10  отсутствует в базе данных
Трек 11  отсутствует в базе данных
Трек 12  отсутствует в базе данных
Трек 13  отсутствует в базе данных
Трек 14  отсутствует в базе данных
Трек 15  отсутствует в базе данных
Трек 16  отсутствует в базе данных
Трек 17  отсутствует в базе данных
Трек 18  отсутствует в базе данных
Трек 19  отсутствует в базе данных
Трек 20  отсутствует в базе данных
Ни одного трека нет в базе AccurateRip
Конец отчёта
==== Контрольная сумма отчёта 55D0613FB7CC0768DF9C06EACDF3D1F080B7338B90D43BAECF3F286F867A3341 ====

Содержание индексной карты (.CUE)

REM GENRE Chanson
REM DATE 2012
REM DISCID 0B11F814
REM COMMENT "ExactAudioCopy v1.0b2"
PERFORMER "Трофим (Сергей Трофимов)"
TITLE "Серия «SUPER HITS COLLECTION. 20 лучших песен»"
FILE "Трофим (Сергей Трофимов) - Серия «SUPER HITS COLLECTION. 20 лучших песен».flac" WAVE
  TRACK 01 AUDIO
    TITLE "Эх, дал бы кто взаймы (Музыка и стихи Сергей Трофимов)"
    PERFORMER "Трофим (Сергей Трофимов)"
    INDEX 01 00:00:00
  TRACK 02 AUDIO
    TITLE "Ветер в голове (Музыка и стихи Сергей Трофимов)"
    PERFORMER "Трофим (Сергей Трофимов)"
    INDEX 00 03:45:03
    INDEX 01 03:45:73
  TRACK 03 AUDIO
    TITLE "Снегири (Музыка и стихи Сергей Трофимов)"
    PERFORMER "Трофим (Сергей Трофимов)"
    INDEX 00 07:57:64
    INDEX 01 07:58:58
  TRACK 04 AUDIO
    TITLE "Дальнобойная (Музыка и стихи Сергей Трофимов)"
    PERFORMER "Трофим (Сергей Трофимов)"
    INDEX 00 10:57:47
    INDEX 01 10:58:42
  TRACK 05 AUDIO
    TITLE "Столичная (Музыка и стихи Сергей Трофимов)"
    PERFORMER "Трофим (Сергей Трофимов)"
    INDEX 00 14:12:32
    INDEX 01 14:13:27
  TRACK 06 AUDIO
    TITLE "Я скучаю по тебе (Музыка и стихи Сергей Трофимов)"
    PERFORMER "Трофим (Сергей Трофимов)"
    INDEX 00 17:35:28
    INDEX 01 17:36:23
  TRACK 07 AUDIO
    TITLE "Аты - баты (Музыка и стихи Сергей Трофимов)"
    PERFORMER "Трофим (Сергей Трофимов)"
    INDEX 00 22:01:55
    INDEX 01 22:02:50
  TRACK 08 AUDIO
    TITLE "Горько (Музыка и стихи Сергей Трофимов)"
    PERFORMER "Трофим (Сергей Трофимов)"
    INDEX 00 24:07:72
    INDEX 01 24:08:67
  TRACK 09 AUDIO
    TITLE "Просто так (Музыка и стихи Сергей Трофимов)"
    PERFORMER "Трофим (Сергей Трофимов)"
    INDEX 00 28:35:39
    INDEX 01 28:36:34
  TRACK 10 AUDIO
    TITLE "Песня о Ленине (Музыка и стихи Сергей Трофимов)"
    PERFORMER "Трофим (Сергей Трофимов)"
    INDEX 00 33:33:40
    INDEX 01 33:34:35
  TRACK 11 AUDIO
    TITLE "Судьба (Музыка и стихи Сергей Трофимов)"
    PERFORMER "Трофим (Сергей Трофимов)"
    INDEX 00 37:10:64
    INDEX 01 37:11:59
  TRACK 12 AUDIO
    TITLE "Пожалей меня, пожалей (Музыка и стихи Сергей Трофимов)"
    PERFORMER "Трофим (Сергей Трофимов)"
    INDEX 00 40:40:12
    INDEX 01 40:41:06
  TRACK 13 AUDIO
    TITLE "Самарский реггей (Музыка и стихи Сергей Трофимов)"
    PERFORMER "Трофим (Сергей Трофимов)"
    INDEX 00 44:54:38
    INDEX 01 44:55:33
  TRACK 14 AUDIO
    TITLE "Ветерок (Музыка и стихи Сергей Трофимов)"
    PERFORMER "Трофим (Сергей Трофимов)"
    INDEX 00 49:01:39
    INDEX 01 49:02:34
  TRACK 15 AUDIO
    TITLE "Алёшка (Музыка и стихи Сергей Трофимов)"
    PERFORMER "Трофим (Сергей Трофимов)"
    INDEX 00 52:40:38
    INDEX 01 52:41:33
  TRACK 16 AUDIO
    TITLE "Крылья (Музыка и стихи Сергей Трофимов)"
    PERFORMER "Трофим (Сергей Трофимов)"
    INDEX 00 56:02:18
    INDEX 01 56:03:13
  TRACK 17 AUDIO
    TITLE "Я уже устал (Музыка и стихи Сергей Трофимов)"
    PERFORMER "Трофим (Сергей Трофимов)"
    INDEX 00 60:48:31
    INDEX 01 60:49:26
  TRACK 18 AUDIO
    TITLE "Колыбельная (Музыка и стихи Сергей Трофимов)"
    PERFORMER "Трофим (Сергей Трофимов)"
    INDEX 00 65:16:08
    INDEX 01 65:17:03
  TRACK 19 AUDIO
    TITLE "Для России (Музыка и стихи Сергей Трофимов)"
    PERFORMER "Трофим (Сергей Трофимов)"
    INDEX 00 68:38:69
    INDEX 01 68:39:64
  TRACK 20 AUDIO
    TITLE "На краю (Музыка и стихи Сергей Трофимов)"
    PERFORMER "Трофим (Сергей Трофимов)"
    INDEX 00 73:19:60
    INDEX 01 73:20:55

Лог проверки качества

AUDIOCHECKER v2.0 beta (build 457) - by Dester - opdester@freemail.hu
~~~~~~~~~~~~~~~~~~~~~~~~~~~~~~~~~~
-=== DO NOT EDIT THIS FILE! ===-
Path: ...\[2012] ТРОФИМОВ СЕРГЕЙ «SUPER HITS COLLECTION. 20 лучших песен»
1 -=- Трофим (Сергей Трофимов) - Серия «SUPER HITS COLLECTION. 20 лучших песен».wav -=- CDDA (99%)
6065668

COVERS CD

[Профиль] [ЛС]

Создавать темы 13-Авг-2015 11:04 (спустя 30 дней)

Топик был перенесен из форума Шансон и авторская песня в форум Сhanson
sergej644
 
Кто просматривает тему:

Показать сообщения:    

Текущее время: Сегодня 21:33

Часовой пояс: GMT



Вы не можете начинать темы
Вы не можете отвечать на сообщения
Вы не можете редактировать свои сообщения
Вы не можете удалять свои сообщения
Вы не можете голосовать в опросах
Вы не можете прикреплять файлы к сообщениям
Вы не можете скачивать файлы