Трофейная Германия (Сергей Краус) [2014, Документальный, HDTV 1080i] [Россия HD]

 
Автор Сообщение

TorrentFilm ®

Пол:

Стаж: 2 года

Сообщений: 7741



Награды: Нет

Торрент-статистика

Создавать темы 01-Янв-2015 00:01

[Цитировать]

Трофейная Германия
Дата выпуска: 25.12.2014
Страна: Россия
Жанр: Документальный
Продолжительность: 00:44:16
Перевод: Не требуется
Режиссер: Сергей Краус
Описание: Кто, что, зачем и в каких количествах вывез из покоренной Европы в 1944 - 1949 годах в СССР? До начала 90-х в отечественных СМИ, не говоря уже о серьезной научной и мемуарной литературе, эта тема по понятным причинам не освещалась, да и к настоящему времени по ней не опубликовано сколько-нибудь качественных обобщенных исследований. Между тем, изучение этого вопроса может дать представление о социально-экономических особенностях непростой послевоенной эпохи и о психологии тогдашних советских людей, впервые после 1917 года оказавшихся в западном "обществе потребления".Уже летом 1945 года из Германии и Австрии в СССР пошли эшелоны с оборудованием для спешно восстанавливаемой советской промышленности - до сих пор на некоторых производствах Москвы и Подмосковья трудятся сработанные на совесть уникальные "трофейные станки". Строго засекреченной на протяжении нескольких послевоенных десятилетий была судьба попавших в запасники советских музеев европейских художественных коллекций, которые до сих пор служат "яблоками раздора" между нынешними обладателями в России и наследниками изначальных владельцев этих культурных ценностей...
Тип релиза: HDTV 1080i
Контейнер: TS
Видео: H264; 1920x1080 (16:9); 25.000 fps; ~7500 Kbps
Аудио: MPEG Audio 48000Hz stereo 192 Кбит/сек

MediaInfo

G:\Трофейная Германия. (2014)_DVB by SLuMeP.ts General #1 ID : 1 (0x1) Complete name : G:\Трофейная Германия. (2014)_DVB by SLuMeP.ts Format : MPEG-TS File size : 2.51 GiB Duration : 44mn 16s Overall bit rate mode : Variable Overall bit rate : 8 131 Kbps Video #306 ID : 306 (0x132) Menu ID : 1 (0x1) Format : AVC Format/Info : Advanced Video Codec Format profile : High@L4.0 Format settings, CABAC : Yes Format settings, ReFrames : 4 frames Codec ID : 27 Duration : 44mn 16s Bit rate : 7 535 Kbps Width : 1 920 pixels Height : 1 080 pixels Display aspect ratio : 16:9 Frame rate : 25.000 fps Standard : Component Color space : YUV Chroma subsampling : 4:2:0 Bit depth : 8 bits Scan type : Interlaced Scan order : Top Field First Bits/(Pixel*Frame) : 0.145 Stream size : 2.33 GiB (93%) Color primaries : BT.709 Transfer characteristics : BT.709 Matrix coefficients : BT.709 Audio #406 ID : 406 (0x196) Menu ID : 1 (0x1) Format : MPEG Audio Format version : Version 1 Format profile : Layer 2 Codec ID : 3 Duration : 44mn 16s Bit rate mode : Constant Bit rate : 192 Kbps Channel(s) : 2 channels Sampling rate : 48.0 KHz Compression mode : Lossy Delay relative to video : -120ms Stream size : 60.8 MiB (2%) Language : English

Скриншоты


[Профиль] [ЛС]
Показать сообщения:    

Текущее время: Сегодня 01:07

Часовой пояс: GMT



Вы не можете начинать темы
Вы не можете отвечать на сообщения
Вы не можете редактировать свои сообщения
Вы не можете удалять свои сообщения
Вы не можете голосовать в опросах
Вы не можете прикреплять файлы к сообщениям
Вы не можете скачивать файлы