Тростник / The Reeds (2010) BDRip 1080p от CINEMANIA | A

 
Автор Сообщение

sergej644 ®

Пол:

Стаж: 4 года 11 месяцев

Сообщений: 6044

Откуда: Soviet Union



Награды: Нет

Торрент-статистика

Создавать темы 11-Ноя-2014 10:59

[Цитировать]

Информация о фильме
Название: Тростник
Оригинальное название: The Reeds
Год выхода: 2010
Жанр: ужасы
Режиссер: Ник Коэн
В ролях: Анна Брюстер, Джофф Белл, Даниэль Кальтаджироне, Эмма Кэтервуд, О. Т. Фагбенли, Скарлет Джонсон, Уилл Меллор, Скарлет Сабет, Карл Эшман, Рис Чэпман, Джеймс Марриот
О фильме:
Группа молодых людей, историю которых рассказывает фильм, взяв в аренду катер, отправляется на веселую прогулку по реке. Внезапно катер садится нам мель, и герои фильма оказываются посреди заболоченной местности, предпринимая усилия, чтобы исправить ситуацию. Но окружающий их тростник словно не хочет отпускать своих невольных пленников из ловушки. Вскоре ребята уже вынуждены спасать не только застрявший катер, но и свои жизни, поскольку камышовые заросли, в которых они оказались, как выясняется, хранят мрачные тайны...

Выпущено: Великобритания
Продолжительность: 01:22:51
Озвучивание: Авторское (одноголосое) [Максим Логинофф]
Файл
Формат: MKV
Качество: BDRip 1080p [CHD]
Видео: 12700 kb/s, 1916x816
Аудио: Russian: AC3, 448 kb/s (6 ch) / English: DTS, 1510 kb/s (6 ch)
Субтитры: English
Размер: 8.98 GB
------------
Скачать: Сэмпл
------------
Релиз группы: -

MediaInfo

General
The.Reeds.2010.Blu.Ray.1080p.CINEMANIA.mkv
Format : Matroska
Format version : Version 4 / Version 2
File size : 8.98 GiB
Duration : 1h 26mn
Overall bit rate : 14.9 Mbps
Movie name : Release Group CINEMANIA
Encoded date : UTC 2014-11-05 14:28:36
Writing application : mkvmerge v7.3.0 ('Nouages') 64bit built on Oct 22 2014 18:53:34
Writing library : libebml v1.3.0 + libmatroska v1.4.1
Video
ID : 1
Format : AVC
Format/Info : Advanced Video Codec
Format profile : High@L4.1
Format settings, CABAC : Yes
Format settings, ReFrames : 5 frames
Codec ID : V_MPEG4/ISO/AVC
Duration : 1h 26mn
Bit rate : 12.7 Mbps
Width : 1 916 pixels
Height : 816 pixels
Display aspect ratio : 2.35:1
Frame rate mode : Constant
Frame rate : 23.976 fps
Color space : YUV
Chroma subsampling : 4:2:0
Bit depth : 8 bits
Scan type : Progressive
Bits/(Pixel*Frame) : 0.338
Stream size : 7.63 GiB (85%)
Title : Release Group CINEMANIA
Writing library : x264 core 115 r2008+578 3864dbe
Encoding settings : cabac=1 / ref=5 / deblock=1:-3:-3 / analyse=0x3:0x113 / me=umh / subme=9 / psy=1 / fade_compensate=0.00 / psy_rd=1.10:0.15 / mixed_ref=1 / me_range=32 / chroma_me=1 / trellis=2 / 8x8dct=1 / cqm=2 / deadzone=21,11 / fast_pskip=0 / chroma_qp_offset=-2 / threads=32 / sliced_threads=0 / nr=0 / decimate=1 / interlaced=0 / bluray_compat=0 / constrained_intra=0 / fgo=0 / bframes=6 / b_pyramid=2 / b_adapt=2 / b_bias=0 / direct=3 / weightb=1 / open_gop=0 / weightp=2 / keyint=250 / keyint_min=23 / scenecut=40 / intra_refresh=0 / rc_lookahead=60 / rc=2pass / mbtree=1 / bitrate=13536 / ratetol=2.0 / qcomp=0.70 / qpmin=1 / qpmax=63 / qpstep=4 / cplxblur=20.0 / qblur=0.5 / vbv_maxrate=40000 / vbv_bufsize=30000 / nal_hrd=none / ip_ratio=1.40 / aq=1:0.90
Language : English
Default : No
Forced : No
Audio #1
ID : 2
Format : AC-3
Format/Info : Audio Coding 3
Mode extension : CM (complete main)
Format settings, Endianness : Big
Codec ID : A_AC3
Duration : 1h 26mn
Bit rate mode : Constant
Bit rate : 448 Kbps
Channel(s) : 6 channels
Channel positions : Front: L C R, Side: L R, LFE
Sampling rate : 48.0 KHz
Bit depth : 16 bits
Compression mode : Lossy
Stream size : 276 MiB (3%)
Title : Максим Логинофф
Language : Russian
Default : Yes
Forced : Yes
Audio #2
ID : 3
Format : DTS
Format/Info : Digital Theater Systems
Mode : 16
Format settings, Endianness : Big
Codec ID : A_DTS
Duration : 1h 26mn
Bit rate mode : Constant
Bit rate : 1 509 Kbps
Channel(s) : 6 channels
Channel positions : Front: L C R, Side: L R, LFE
Sampling rate : 48.0 KHz
Bit depth : 24 bits
Compression mode : Lossy
Stream size : 929 MiB (10%)
Language : English
Default : No
Forced : No
Text #2
ID : 5
Format : UTF-8
Codec ID : S_TEXT/UTF8
Codec ID/Info : UTF-8 Plain Text
Language : English
Default : No
Forced : No

Скриншоты

[Профиль] [ЛС]
Показать сообщения:    

Текущее время: Сегодня 14:29

Часовой пояс: GMT



Вы не можете начинать темы
Вы не можете отвечать на сообщения
Вы не можете редактировать свои сообщения
Вы не можете удалять свои сообщения
Вы не можете голосовать в опросах
Вы не можете прикреплять файлы к сообщениям
Вы не можете скачивать файлы