Тростник / The Reeds (Nick Cohen / Ник Коэн) [2009, Великобритания, ужасы, BDRip] VO

 
Автор Сообщение

TorrentFilm ®

Пол:

Стаж: 2 года

Сообщений: 7741



Награды: Нет

Торрент-статистика

Создавать темы 06-Апр-2015 00:02

[Цитировать]

Тростник / The Reeds-«No Outs»- Страна: Великобритания
Жанр: ужасы
Год выпуска: 2009
Продолжительность: 01:22:52
Перевод: Одноголосый закадровый - | Максим Логинофф |
Cубтитры: нет
Оригинальная аудиодорожка: нет-Режиссер: Nick Cohen / Ник Коэн-В ролях: Анна Брюстер, Джофф Белл, Даниэль Кальтаджироне, Эмма Кэтервуд, О. Т. Фагбенли, Скарлет Джонсон, Уилл Меллор, Скарлет Сабет, Natai Pauwels, Карл Эшман, Рис Чэпман, Джеймс Марриот...-Описание: Группа молодых людей, историю которых рассказывает фильм, взяв в аренду катер, отправляется на веселую прогулку по реке. Внезапно катер садится нам мель, и герои фильма оказываются посреди заболоченной местности, предпринимая усилия, чтобы исправить ситуацию. Но окружающий их тростник словно не хочет отпускать своих невольных пленников из ловушки. Вскоре ребята уже вынуждены спасать не только застрявший катер, но и свои жизни, поскольку камышовые заросли, в которых они оказались, как выясняется, хранят мрачные тайны...- -Качество видео: BDRip | The.Reeds.2009.1080p.Bluray.GER.MPEG2.Remux.mkv |
Формат видео: AVI
Видео: 720x304, 24.000 fps, XviD build 73 ~2070 kbps avg, 0.395 bit/pixel
Аудио: 48 kHz, AC3 Dolby Digital, 3/2 (L,C,R,l,r) + LFE ch, ~448.00 kbps avg[/i]-

Дополнительно о фильме:

Производство, студия дубляжа, прокат:

MediaInfo

General
Complete name : D:\Rip's_By_Flash\The_Reeds.BDRip.By_Flash.avi
Format : AVI
Format/Info : Audio Video Interleave
File size : 1.46 GiB
Duration : 1h 22mn
Overall bit rate : 2 530 Kbps
Writing application : VirtualDubMod 1.5.10.3 | www.virtualdub-fr.org || (build 2550/release)
Writing library : VirtualDubMod build 2550/release
Video
ID : 0
Format : MPEG-4 Visual
Format profile : Advanced Simple@L5
Format settings, BVOP : 1
Format settings, QPel : No
Format settings, GMC : No warppoints
Format settings, Matrix : Custom
Codec ID : XVID
Codec ID/Hint : XviD
Duration : 1h 22mn
Bit rate : 2 072 Kbps
Width : 720 pixels
Height : 304 pixels
Display aspect ratio : 2.35:1
Frame rate : 23.976 fps
Color space : YUV
Chroma subsampling : 4:2:0
Bit depth : 8 bits
Scan type : Progressive
Compression mode : Lossy
Bits/(Pixel*Frame) : 0.395
Stream size : 1.20 GiB (82%)
Writing library : XviD 73
Audio
ID : 1
Format : AC-3
Format/Info : Audio Coding 3
Mode extension : CM (complete main)
Format settings, Endianness : Big
Codec ID : 2000
Duration : 1h 22mn
Bit rate mode : Constant
Bit rate : 448 Kbps
Channel(s) : 6 channels
Channel positions : Front: L C R, Side: L R, LFE
Sampling rate : 48.0 KHz
Bit depth : 16 bits
Compression mode : Lossy
Stream size : 266 MiB (18%)
Alignment : Split accross interleaves
Interleave, duration : 42 ms (1.00 video frame)
Interleave, preload duration : 500 ms

Скриншот c названием фильма

Скриншоты

[Профиль] [ЛС]

Создавать темы 06-Авг-2015 22:37 (спустя 4 месяца)

Топик был перенесен из форума Фильмы до 2014 года в форум Фильмы до 2012 года
sergej644
 

Создавать темы 12-Июн-2016 08:49 (спустя 1 год 2 месяца)

Топик был перенесен из форума Фильмы 2011 года в форум Фильмы 2009 года
Russian Mafia
 
Показать сообщения:    

Текущее время: Сегодня 04:43

Часовой пояс: GMT



Вы не можете начинать темы
Вы не можете отвечать на сообщения
Вы не можете редактировать свои сообщения
Вы не можете удалять свои сообщения
Вы не можете голосовать в опросах
Вы не можете прикреплять файлы к сообщениям
Вы не можете скачивать файлы