Тропический лес: Южная Америка / Fascination Rainforest (Бенджамин Эйхер / Benjamin Eicher, Тимо Майер / Timo Johannes Mayer) [2012, Документальный, HDRip] + original Eng

 
Автор Сообщение

reversefile ®

Пол:

Стаж: 4 года 5 месяцев

Сообщений: 842

Откуда: ReverseFile.org



Награды: Нет

Торрент-статистика

Создавать темы 25-Июл-2014 01:18

[Цитировать]

Тропический лес: Южная Америка / Fascination Rainforest Год выпуска: 2012
Страна: Германия / Los Banditos Films, KSM
Жанр: Документальный
Продолжительность: 00:51:52
Перевод: Одноголосый (закадровый)
Русские субтитры: нет-Режиссер: Бенджамин Эйхер / Benjamin Eicher, Тимо Майер / Timo Johannes Mayer-Описание: Вас ожидает захватывающее путешествие вглубь настоящего тропического леса. Загадочный мир, затерянный в самом сердце джунглей предстанет во всей красе и многообразии сквозь призму всех форм жизни.
Тропические леса - рай для неописуемого разнообразия различных организмов. В ходе эволюции, где животные и растения подстраивались друг к другу и видоизменялись в процессе специализации. Они адаптировались в единое целое и только часть его, до сих пор изучена. Погрузитесь в это увлекательное произведение искусства и природы - в реальном 3D.- -Качество: HDRip
Формат: AVI
Видео: 704x400 (16:9), 25.000 fps, XviD build (1.2.1) ~1685 kbps avg, 0.23 bit/pixel
Аудио# 1: | Russian | 48.0 kHz, AC3 Dolby Digital, 3/2 (L,C,R,l,r) LFE ch, ~384.00 kbps avg
Аудио# 2: | English | 48.0 kHz, AC3 Dolby Digital, 3/2 (L,C,R,l,r) LFE ch, ~384.00 kbps avg

MediaInfo

ОбщееПолное имя : A:\Фильмы\Fascination.Rainforest.2012.HDRip\Fascination.Rainforest.2012.HDRip.aviФормат : AVIФормат/Информация : Audio Video InterleaveРазмер файла : 915 МбайтПродолжительность : 51 м.Общий поток : 2466 Кбит/секНазвание фильма : http:// СПАМРежиссёр : http:// СПАМПрограмма кодирования : VirtualDubModRus 1.5.10.2 (build 2542/release)Примечание : http:// СПАМ
ВидеоИдентификатор : 0Формат : MPEG-4 VisualПрофиль формата : Advanced Simple@L5Параметр BVOP формата : 4Параметр QPel формата : НетПараметр GMC формата : Без точки переходаПараметр матрицы формата : ВыборочнаяИдентификатор кодека : XVIDИдентификатор кодека/Подсказка : XviDПродолжительность : 51 м.Битрейт : 1685 Кбит/секШирина : 704 пикселяВысота : 400 пикселейСоотношение сторон : 16:9Частота кадров : 25,000 кадров/секЦветовое пространство : YUVСубдискретизация насыщенности : 4:2:0Битовая глубина : 8 битТип развёртки : ПрогрессивнаяМетод сжатия : С потерямиБит/(Пиксели*Кадры) : 0.239Размер потока : 625 Мбайт (68%)Библиотека кодирования : XviD 1.2.1 (UTC 2008-12-04)
Аудио #1Идентификатор : 1Формат : AC-3Формат/Информация : Audio Coding 3Расширение режима : CM (complete main)Параметр Endianness формата : BigИдентификатор кодека : 2000Продолжительность : 51 м.Вид битрейта : ПостоянныйБитрейт : 384 Кбит/секКаналы : 6 каналовРасположение каналов : Front: L C R, Side: L R, LFEЧастота : 48,0 КГцБитовая глубина : 16 битМетод сжатия : С потерямиРазмер потока : 142 Мбайт (16%)Выравнивание : Разделение по промежуткамПродолжительность промежутка : 40 мс. (1,00 видеокадр)Время предзагрузки промежутка : 500 мс.
Аудио #2Идентификатор : 2Формат : AC-3Формат/Информация : Audio Coding 3Расширение режима : CM (complete main)Параметр Endianness формата : BigИдентификатор кодека : 2000Продолжительность : 51 м.Вид битрейта : ПостоянныйБитрейт : 384 Кбит/секКаналы : 6 каналовРасположение каналов : Front: L C R, Side: L R, LFEЧастота : 48,0 КГцБитовая глубина : 16 битМетод сжатия : С потерямиРазмер потока : 142 Мбайт (16%)Выравнивание : Разделение по промежуткамПродолжительность промежутка : 40 мс. (1,00 видеокадр)Время предзагрузки промежутка : 500 мс.

Скриншоты


[Профиль] [ЛС]
Показать сообщения:    

Текущее время: Сегодня 16:23

Часовой пояс: GMT



Вы не можете начинать темы
Вы не можете отвечать на сообщения
Вы не можете редактировать свои сообщения
Вы не можете удалять свои сообщения
Вы не можете голосовать в опросах
Вы не можете прикреплять файлы к сообщениям
Вы не можете скачивать файлы