Тропа гиены / Hyena Road (2015) BDRip 1080p | L1

 
Автор Сообщение

достали все ®

Пол:

Стаж: 1 год 8 месяцев

Сообщений: 6554



Награды: 12 (Подробнее)

Mega Releaser 1 (Количество: 1) Top Releaser 2 (Количество: 1) Mega Seeder 4 (Количество: 1)
Торрент-статистика

Создавать темы 28-Сен-2016 12:36

[Цитировать]

Тропа гиены / Hyena Road
Страна: Канада
Производство: Bron Creative, Buffalo Gal Pictures, International Traders, Rhombus Media
Год выпуска: 2015
Жанр: драма, военный
Продолжительность: 02:00:00
Режиссер: Пол Гросс
Автор сценария: Пол Гросс
В ролях: Аллан Хоуко, Россиф Сазерленд, Пол Гросс, Кларк Джонсон, Кристин Хорн, Дженнифер Пудавик, Дэвид Ричмонд-Пек, Набил Элухаби
Описание: Три разных человека, три разных мира, три разных войны — все стоят на пересечении современной войны — в мутном мире меняющейся нравственности, где всё не так, как кажется. До войны у них была спокойная гражданка рядом с близкими людьми, мечты о будущем и возможность самостоятельно принимать решения на своём пути, но подписав контракт ради денег, они стали орудием в бесконечной и бессмысленной войне. Снайпер оказывается невольно вовлечён в жизнь одной из своих целей. Офицер разведки выступает основным мотиватором в убийстве. Легендарный воин-моджахед, решивший уйти от сражений и кровопролития в спокойный мир, находит себя в центре очередного побоища. Они не похожи друг на друга, но все трое вынуждены крутиться в мрачном мире, где всё на деле оказывается совсем не тем, чем казалось на первый взгляд...

Перевод: Любительский (одноголосый, закадровый) | Xixidok
Субтитры: русские, английские-Качество: BDRip 1080p
Формат: MKV
Видео кодек: AVC
Аудио кодек: АС3
Видео: 1920x1032 (1.85:1), 23.976 fps, MPEG-4 AVC ~15.0 Мbps avg
Аудио №1: 48.0 kHz, AC3 Dolby Digital, 3/2 (L,C,R,l,r) + LFE ch, ~3878 kbps / 24-bit | RUS
Аудио №2: 48.0 kHz, AC3 Dolby Digital, 3/2 (L,C,R,l,r) + LFE ch, ~4169 kbps / 24-bit | ENG
Формат субтитров: Presentation Graphics
Дата премьеры (мир): 14 сентября 2015

Релиз от: NNM-CLUB

Media Info

Format : Matroska
Format version : Version 4 / Version 2
File size : 13.7 GiB
Duration : 2 h 0 min
Overall bit rate : 16.4 Mb/s
Movie name : Hyena Road (2015).BDRip by Lexandros for NNM CLUB
Encoded date : UTC 2016-08-09 05:49:26
Writing application : mkvmerge v9.3.1 ('Mask Machine') 64bit
Writing library : libebml v1.3.4 + libmatroska v1.4.5
Video
ID : 1
Format : AVC
Format/Info : Advanced Video Codec
Format profile : High@L4.1
Format settings, CABAC : Yes
Format settings, ReFrames : 4 frames
Codec ID : V_MPEG4/ISO/AVC
Duration : 2 h 0 min
Bit rate : 15.0 Mb/s
Width : 1 920 pixels
Height : 1 032 pixels
Display aspect ratio : 1.85:1
Frame rate mode : Constant
Frame rate : 23.976 (24000/1001) FPS
Color space : YUV
Chroma subsampling : 4:2:0
Bit depth : 8 bits
Scan type : Progressive
Bits/(Pixel*Frame) : 0.316
Stream size : 12.6 GiB (92%)
Writing library : x264 core 148 r2638 7599210
Encoding settings : cabac=1 / ref=4 / deblock=1:-1:-1 / analyse=0x3:0x133 / me=umh / subme=11 / psy=1 / psy_rd=1.05:0.00 / mixed_ref=1 / me_range=32 / chroma_me=1 / trellis=2 / 8x8dct=1 / cqm=0 / deadzone=21,11 / fast_pskip=0 / chroma_qp_offset=-2 / threads=12 / lookahead_threads=2 / sliced_threads=0 / nr=0 / decimate=0 / interlaced=0 / bluray_compat=0 / constrained_intra=0 / bframes=8 / b_pyramid=2 / b_adapt=2 / b_bias=0 / direct=3 / weightb=1 / open_gop=0 / weightp=2 / keyint=240 / keyint_min=23 / scenecut=40 / intra_refresh=0 / rc_lookahead=60 / rc=2pass / mbtree=0 / bitrate=15000 / ratetol=1.0 / qcomp=0.70 / qpmin=10 / qpmax=51 / qpstep=4 / cplxblur=20.0 / qblur=0.5 / vbv_maxrate=62500 / vbv_bufsize=78125 / nal_hrd=none / filler=0 / ip_ratio=1.40 / pb_ratio=1.20 / aq=3:0.85
Language : English
Default : Yes
Forced : No
Audio #1
ID : 2
Format : AC-3
Format/Info : Audio Coding 3
Mode extension : CM (complete main)
Format settings, Endianness : Big
Codec ID : A_AC3
Duration : 2 h 0 min
Bit rate mode : Constant
Bit rate : 640 kb/s
Channel(s) : 6 channels
Channel positions : Front: L C R, Side: L R, LFE
Sampling rate : 48.0 kHz
Frame rate : 31.250 FPS (1536 spf)
Compression mode : Lossy
Stream size : 549 MiB (4%)
Language : Russian
Default : Yes
Forced : No
Audio #2
ID : 3
Format : AC-3
Format/Info : Audio Coding 3
Mode extension : CM (complete main)
Format settings, Endianness : Big
Codec ID : A_AC3
Duration : 2 h 0 min
Bit rate mode : Constant
Bit rate : 640 kb/s
Channel(s) : 6 channels
Channel positions : Front: L C R, Side: L R, LFE
Sampling rate : 48.0 kHz
Frame rate : 31.250 FPS (1536 spf)
Compression mode : Lossy
Stream size : 549 MiB (4%)
Language : English
Default : No
Forced : No
Text #1
ID : 4
Format : PGS
Codec ID : S_HDMV/PGS
Codec ID/Info : Picture based subtitle format used on BDs/HD-DVDs
Duration : 1 h 54 min
Bit rate : 60.4 kb/s
Count of elements : 2972
Stream size : 49.4 MiB (0%)
Language : Russian
Default : Yes
Forced : No
Text #2
ID : 5
Format : PGS
Codec ID : S_HDMV/PGS
Codec ID/Info : Picture based subtitle format used on BDs/HD-DVDs
Duration : 1 h 59 min
Bit rate : 46.5 kb/s
Count of elements : 3424
Stream size : 39.7 MiB (0%)
Language : English
Default : No
Forced : No
Menu #1
00:00:00.000 : en:Chapter 1
00:07:34.829 : en:Chapter 2
00:14:21.694 : en:Chapter 3
00:23:08.470 : en:Chapter 4
00:31:47.405 : en:Chapter 5
00:38:43.612 : en:Chapter 6
00:46:17.149 : en:Chapter 7
00:54:03.782 : en:Chapter 8
01:00:24.954 : en:Chapter 9
01:09:18.362 : en:Chapter 10
01:16:25.205 : en:Chapter 11
01:25:09.270 : en:Chapter 12
01:31:48.336 : en:Chapter 13
01:39:53.153 : en:Chapter 14
01:47:06.795 : en:Chapter 15
01:54:59.058 : en:Chapter 16

Скриншоты

[Профиль] [ЛС]
Показать сообщения:    

Текущее время: Сегодня 14:54

Часовой пояс: GMT



Вы не можете начинать темы
Вы не можете отвечать на сообщения
Вы не можете редактировать свои сообщения
Вы не можете удалять свои сообщения
Вы не можете голосовать в опросах
Вы не можете прикреплять файлы к сообщениям
Вы не можете скачивать файлы