Трон: Наследие / TRON: Legacy (Джозеф Косински / Joseph Kosinski) [2010, США, Фантастика, боевик, триллер, приключения, SATRip] [Fullscreen] Dub

 
Автор Сообщение

TorrentFilm ®

Пол:

Стаж: 2 года

Сообщений: 7741



Награды: Нет

Торрент-статистика

Создавать темы 22-Фев-2016 00:08

[Цитировать]

Трон: Наследие / TRON: Legacy / Full Screen
Страна: США
Жанр: Фантастика, боевик, триллер, приключения
Год выпуска: 2010
Продолжительность: 01:52:49
Перевод: Профессиональный (дублированный)
Cубтитры: нет
Оригинальная аудиодорожка: нет
Режиссер: Джозеф Косински / Joseph Kosinski
В ролях: Джефф Бриджес, Гаррет Хедлунд, Оливия Уайлд, Брюс Бокслейтнер, Джеймс Фрейн, Бо Гарретт, Майкл Шин, Серинда Свон, Йайа ДаКоста, Элизабет
Описание: Сэм Флинн, технически одарённый 27-летний сын Кевина Флинна, начинает расследовать исчезновение своего отца и оказывается втянутым в тот же мир жестоких программ и гладиаторских игр, в котором его отец жил на протяжении 20 лет. Вместе с помощницей Кевина отец и сын пускаются в рискованное путешествие за жизнью по поражающей взгляд кибер-вселенной, которая стала ещё более совершенной и чрезвычайно опасной.
Доп. информация: Наполнение кадра отличается от BD http://screenshotcomparison.com/comparison/162801
Сэмпл: http://multi-up.com/1090004
Качество видео: SATRip
Формат видео: AVI
Видео: MPEG4, XviD, 640x480 (4:3), 25.000 fps, 1 641 Kbps (0.214 bit/pixel)
Аудио: AC-3, 48.0 KHz, 2 ch, 192 Kbps, CBR

MediaInfo

Общее
Полное имя : N:\Трон. Наследие.avi
Формат : AVI
Формат/Информация : Audio Video Interleave
Размер файла : 1,45 Гбайт
Продолжительность : 1 ч. 52 м.
Общий поток : 1843 Кбит/сек
Название фильма : Трон: Наследие / TRON: Legacy (2010)
Программа кодирования : VirtualDubMod 1.5.10.2 (build 2540/release)
Библиотека кодирования : VirtualDubMod build 2540/release
Авторское право : miha2154
Видео
Идентификатор : 0
Формат : MPEG-4 Visual
Профиль формата : Advanced Simple@L5
Параметр BVOP формата : 1
Параметр QPel формата : Нет
Параметр GMC формата : Без точки перехода
Параметр матрицы формата : Выборочная
Идентификатор кодека : XVID
Идентификатор кодека/Подсказка : XviD
Продолжительность : 1 ч. 52 м.
Битрейт : 1641 Кбит/сек
Ширина : 640 пикселей
Высота : 480 пикселей
Соотношение сторон : 4:3
Частота кадров : 25,000 кадров/сек
Цветовое пространство : YUV
Субдискретизация насыщенности : 4:2:0
Битовая глубина : 8 бит
Тип развёртки : Прогрессивная
Метод сжатия : С потерями
Бит/(Пиксели*Кадры) : 0.214
Размер потока : 1,29 Гбайт (89%)
Библиотека кодирования : XviD 65
Аудио
Идентификатор : 1
Формат : AC-3
Формат/Информация : Audio Coding 3
Расширение режима : CM (complete main)
Параметр Endianness формата : Big
Идентификатор кодека : 2000
Продолжительность : 1 ч. 52 м.
Вид битрейта : Постоянный
Битрейт : 192 Кбит/сек
Каналы : 2 канала
Расположение каналов : Front: L R
Частота : 48,0 КГц
Частота кадров : 31,250 кадров/сек (1536 spf)
Метод сжатия : С потерями
Размер потока : 155 Мбайт (10%)
Выравнивание : Разделение по промежуткам
Продолжительность промежутка : 40 мс. (1,00 видеокадр)
Время предзагрузки промежутка : 500 мс.
Заголовок : Профессиональный (полное дублирование)

Скриншоты


[Профиль] [ЛС]

Создавать темы 12-Июн-2016 07:53 (спустя 3 месяца 19 дней)

Топик был перенесен из форума Фильмы 2011 года в форум Фильмы 2010 года
Russian Mafia
 
Кто просматривает тему:

Форум Тема Автор Размер
Фильмы 2010 года Трон: Наследие / TRON: Legacy (Джозеф Косински / Joseph Kosinski) [2010, США, фантастика, боевик, триллер, приключения, BDRip] Dub + Original + Sub (Rus, Eng) [IMAX] painkiller 2.52 GB
Фильмы 2010 года Трон: Наследие / Tron: Legacy (Джозеф Косински / Joseph Kosinski) [2010, США, фантастика, боевик, триллер, приключения, HDRip-AVC] [IMAX Version] Dub + Sub Rus, Ukr, Eng. painkiller 750 MB
Зарубежные Трон: Наследие в 3Д / Tron: Legacy 3D (Джозеф Косински / Joseph Kosinski) [2010, фантастика, боевик, триллер, приключения, BDRip-AVC] Half OverUnder / Вертикальная анаморфная стереопара TorrentFilm 13.13 GB
Зарубежные Трон: Наследие в 3Д / Tron: Legacy 3D (Джозеф Косински / Joseph Kosinski) [2010, фантастика, боевик, триллер, приключения, BDRip-AVC] Half SideBySide / Горизонтальная анаморфная стереопара TorrentFilm 11.52 GB
Зарубежные Трон: Наследие в 3Д / Tron: Legacy 3D (Джозеф Косински / Joseph Kosinski) [2010, фантастика, боевик, триллер, приключения, Blu-ray disc 1080p] BD3D TorrentFilm 44.5 GB
Показать сообщения:    

Текущее время: Сегодня 12:29

Часовой пояс: GMT



Вы не можете начинать темы
Вы не можете отвечать на сообщения
Вы не можете редактировать свои сообщения
Вы не можете удалять свои сообщения
Вы не можете голосовать в опросах
Вы не можете прикреплять файлы к сообщениям
Вы не можете скачивать файлы