Трон: Наследие / TRON: Legacy (Джозеф Косински / Joseph Kosinski) [2010, США, фантастика, боевик, триллер, приключения, BDRip] Dub + Original + Sub (Rus, Eng) [IMAX]

 
Автор Сообщение

painkiller ®

Стаж: 2 года 3 месяца

Сообщений: 582



Награды: Нет

Торрент-статистика

Создавать темы 14-Авг-2014 09:11

[Цитировать]

Трон: Наследие / TRON: Legacy
«Другая игра, другие правила»
- Страна: США / Walt Disney Pictures
Жанр: Фантастика, Боевик, Триллер, Приключения
Год выпуска: 2010
Продолжительность: 02:05:08
Перевод:
Профессиональный (полное дублирование) [Лицензия «Blu-Ray CEE»]
Оригинальная звуковая дорожка: [Английская]-Cубтитры: Русские (полные, форсированные), Английские (SDH) (внешние srt*)-Режиссер: Джозеф Косински / Joseph Kosinski
Продюсер: Шон Бэйли, Стивен Лисбергер, Джеффри Сильвер-В ролях: Джефф Бриджес (Kevin Flynn / Clu), Гаррет Хедлунд (Sam Flynn), Оливия Уайлд (Quorra), Брюс Бокслейтнер (Alan Bradley / Tron), Джеймс Фрейн (Jarvis), Бо Гарретт (Gem), Майкл Шин (Castor / Zuse), Серинда Свон (Siren #2), Йайа ДаКоста (Siren #3), Элизабет Мэтис (Siren #4), Юрисж Кис (Half Faced Man), Конрад Коутс (Bartik)-О фильме: Сэм Флинн, технически одарённый 27-летний сын Кевина Флинна, начинает расследовать исчезновение своего отца и оказывается втянутым в тот же мир жестоких программ и гладиаторских игр, в котором его отец жил на протяжении 20 лет. Вместе с помощницей Кевина отец и сын пускаются в рискованное путешествие за жизнью по поражающей взгляд кибер-вселенной, которая стала ещё более совершенной и чрезвычайно опасной.-КиноПоиск ~ 6.965 (71 944 )
IMDB ~ 6.80 (215 754)
-Автор рипа : -Качество видео: BDRip [Источник: BDRemux / 1080p AVC DD5.1]
Формат видео: AVI
Видео: 720x400 (1.80:1), 23.976 fps, XviD build 73 ~2105 kbps avg, 0.30 bit/pixel
Аудиокодек: Dolby AC3 5.1
Аудио : 48 kHz/16-bit, AC3 Dolby Digital, 3/2 (L,C,R,l,r) + LFE ch, ~ 384 kbps | Dub
Аудио : 48 kHz/16-bit, AC3 Dolby Digital, 3/2 (L,C,R,l,r) + LFE ch, ~ 384 kbps | Original | Отдельно
Размер: 2.18 GB (1/2 DVD-R)
Скачать: Семпл-

Кадры из фильма[b][font="Georgia

В целях воспроизведения фильма в оригинальном формате IMAX, соотношение сторон кадра будет варьироваться между 2.35:1 и 1.80:1. Mi"]
Полное имя : [2010]_Tron_Nasledie_BDRip.avi
Формат : AVI
Формат/Информация : Audio Video Interleave
Профиль формата : OpenDML
Размер файла : 2,18 Гбайт
Продолжительность : 2 ч. 5 м.
Общий поток : 2497 Кбит/сек
Название фильма : Трон: Наследие / TRON:Legacy (2010) BDRip
Режиссёр : Rensler
Жанр : Фантастика / Боевик / Триллер / Приключения
Программа кодирования : VirtualDubModRus 1.5.10.2 (build 2542/release)
Библиотека кодирования : VirtualDubMod build 2542/release
Примечание : 30.06.2014
Видео
Идентификатор : 0
Формат : MPEG-4 Visual
Профиль формата : Advanced Simple@L5
Параметр BVOP формата : 2
Параметр QPel формата : Нет
Параметр GMC формата : Без точки перехода
Параметр матрицы формата : Выборочная
Идентификатор кодека : XVID
Идентификатор кодека/Подсказка : XviD
Продолжительность : 2 ч. 5 м.
Битрейт : 2105 Кбит/сек
Ширина : 720 пикселей
Высота : 400 пикселей
Соотношение сторон : 16:9
Частота кадров : 23,976 кадра/сек
Цветовое пространство : YUV
Субдискретизация насыщенности : 4:2:0
Битовая глубина : 8 бит
Тип развёртки : Прогрессивная
Метод сжатия : С потерями
Бит/(Пиксели*Кадры) : 0.304
Размер потока : 1,84 Гбайт (84%)
Библиотека кодирования : XviD 73
Аудио
Идентификатор : 1
Формат : AC-3
Формат/Информация : Audio Coding 3
Расширение режима : CM (complete main)
Идентификатор кодека : 2000
Продолжительность : 2 ч. 5 м.
Вид битрейта : Постоянный
Битрейт : 384 Кбит/сек
Каналы : 6 каналов
Расположение каналов : Front: L C R, Side: L R, LFE
Частота : 48,0 КГц
Битовая глубина : 16 бит
Метод сжатия : С потерями
Размер потока : 344 Мбайт (15%)
Выравнивание : Разделение по промежуткам
Продолжительность промежутка : 42 мс. (1,00 видеокадр)
Время предзагрузки промежутка : 500 мс.
Заголовок : Russian
Спасибо за благодарность!
[Профиль] [ЛС]

Создавать темы 06-Авг-2015 23:17 (спустя 11 месяцев 23 дня)

Топик был перенесен из форума Фильмы до 2014 года в форум Фильмы до 2012 года
sergej644
 

Создавать темы 12-Июн-2016 07:54 (спустя 1 год 9 месяцев)

Топик был перенесен из форума Фильмы 2011 года в форум Фильмы 2010 года
Russian Mafia
 
Кто просматривает тему:

Форум Тема Автор Размер
Фильмы 2010 года Трон: Наследие / Tron: Legacy (Джозеф Косински / Joseph Kosinski) [2010, США, фантастика, боевик, триллер, приключения, HDRip-AVC] [IMAX Version] Dub + Sub Rus, Ukr, Eng. painkiller 750 MB
Фильмы 2010 года Трон: Наследие / TRON: Legacy (Джозеф Косински / Joseph Kosinski) [2010, США, Фантастика, боевик, триллер, приключения, SATRip] [Fullscreen] Dub TorrentFilm 1.45 GB
Зарубежные Трон: Наследие в 3Д / Tron: Legacy 3D (Джозеф Косински / Joseph Kosinski) [2010, фантастика, боевик, триллер, приключения, BDRip-AVC] Half OverUnder / Вертикальная анаморфная стереопара TorrentFilm 13.13 GB
Зарубежные Трон: Наследие в 3Д / Tron: Legacy 3D (Джозеф Косински / Joseph Kosinski) [2010, фантастика, боевик, триллер, приключения, BDRip-AVC] Half SideBySide / Горизонтальная анаморфная стереопара TorrentFilm 11.52 GB
Зарубежные Трон: Наследие в 3Д / Tron: Legacy 3D (Джозеф Косински / Joseph Kosinski) [2010, фантастика, боевик, триллер, приключения, Blu-ray disc 1080p] BD3D TorrentFilm 44.5 GB
Показать сообщения:    

Текущее время: Сегодня 00:44

Часовой пояс: GMT



Вы не можете начинать темы
Вы не можете отвечать на сообщения
Вы не можете редактировать свои сообщения
Вы не можете удалять свои сообщения
Вы не можете голосовать в опросах
Вы не можете прикреплять файлы к сообщениям
Вы не можете скачивать файлы