Тронутые / The Road Within (2014) BDRip 1080p | iTunes

 
Автор Сообщение

достали все ®

Пол:

Стаж: 1 год 8 месяцев

Сообщений: 6613



Награды: 12 (Подробнее)

Mega Seeder 2 (Количество: 1) Mega Releaser 1 (Количество: 1) Top Releaser 2 (Количество: 1)
Торрент-статистика

Создавать темы 21-Апр-2016 04:26

[Цитировать]

Информация о фильме
Название: Тронутые / Внутренняя дорога
Оригинальное название: The Road Within
Год выпуска: 2014
Страна: США
Жанр: драма, комедия-Перевод: Дубляж - [iTunes]
Субтитры: английские (Full-length)
Продолжительность: 01:40:57-Режиссер: Грен Уэллс
В ролях: Роберт Шиэн (Vincent), Дев Патель (Alex), Зои Кравиц (Marie), Роберт Патрик (Robert), Кира Седжвик (Dr. Mia Rose), Али Хиллис (Monica), Мэтт Риди (Cop), Росс Галло (Therapist), Джо Ангер, Купер Рот (Boy), Эрик Мэзени (Matt), Луиса Кендрик (Nurse)-Описание:
Винсент, Мари и Алекс - сумасшедшая троица... В прямом смысле. У всех троих по куче тараканов в голове и так периодически сносит крышу, что их богатенькие родители не долго думая определили своих детишек в психушку, откуда они и дали дёру.
На пути к океану, куда они решили отправиться, происходит множество как забавных так и драматических событий. Путешествие, где они сталкиваются с такими живыми человеческими чувствами, как влюблённость, дружба, ненависть, соперничество, становится способом глобально изменить друг друга и мир вокруг.-Рейтинг:

MPAA: R - Лицам до 17 лет обязательно присутствие взрослого-Качество: BDRip 1080p
Формат: MKV
Видео: AVC, 1920x1040 (16:9), 9347 kbps, 24 fps, 0,195 bpp
Аудио №1: русский / AC3 / 5.1 / 48 kHz / 384 kbps / 16 bit |Дубляж, iTunes|
Аудио №2: английский / DTS / 5.1 / 48 kHz / 1510 kbps / 24 bit
Навигация по главам: есть
Семпл-

ОтчетМедиаИнфо

General
Unique ID : 228287691283753553063895563518318285968 (0xABBE9C2CC02BBDA49BE678F649651490)
Complete name : H:Tronutye 2014 BDRip 1080p.mkv
Format : Matroska
Format version : Version 2
File size : 7.92 GiB
Duration : 1h 40mn
Overall bit rate : 11.2 Mbps
Movie name : T_ROAD_WITHIN_
Encoded date : UTC 2016-04-20 00:53:47
Writing application : mkvmerge v8.3.0 ('Over the Horizon') 64bit
Writing library : libebml v1.3.1 + libmatroska v1.4.2
Video
ID : 1
Format : AVC
Format/Info : Advanced Video Codec
Format profile : High@L4.1
Format settings, CABAC : Yes
Format settings, ReFrames : 4 frames
Codec ID : V_MPEG4/ISO/AVC
Duration : 1h 40mn
Bit rate : 9 347 Kbps
Width : 1 920 pixels
Height : 1 040 pixels
Display aspect ratio : 16:9
Frame rate : 24.000 fps
Color space : YUV
Chroma subsampling : 4:2:0
Bit depth : 8 bits
Scan type : Progressive
Bits/(Pixel*Frame) : 0.195
Stream size : 6.43 GiB (81%)
Writing library : x264 core 146 r2538 121396c
Encoding settings : cabac=1 / ref=4 / deblock=1:0:0 / analyse=0x3:0x2 / me=umh / subme=7 / psy=1 / psy_rd=1.00:0.00 / mixed_ref=1 / me_range=16 / chroma_me=1 / trellis=1 / 8x8dct=1 / cqm=0 / deadzone=21,11 / fast_pskip=1 / chroma_qp_offset=-2 / threads=12 / lookahead_threads=2 / sliced_threads=0 / nr=0 / decimate=1 / interlaced=0 / bluray_compat=0 / constrained_intra=0 / bframes=3 / b_pyramid=2 / b_adapt=1 / b_bias=0 / direct=1 / weightb=0 / open_gop=0 / weightp=2 / keyint=240 / keyint_min=24 / scenecut=40 / intra_refresh=0 / rc=2pass / mbtree=0 / bitrate=9347 / ratetol=1.0 / qcomp=0.60 / qpmin=10 / qpmax=51 / qpstep=4 / cplxblur=20.0 / qblur=0.5 / ip_ratio=1.40 / pb_ratio=1.30 / aq=1:1.00
Language : English
Default : Yes
Forced : No
Audio #1
ID : 2
Format : AC-3
Format/Info : Audio Coding 3
Mode extension : CM (complete main)
Codec ID : A_AC3
Duration : 1h 40mn
Bit rate mode : Constant
Bit rate : 384 Kbps
Channel(s) : 6 channels
Channel positions : Front: L C R, Side: L R, LFE
Sampling rate : 48.0 KHz
Bit depth : 16 bits
Compression mode : Lossy
Stream size : 277 MiB (3%)
Title : [DUB] 5.1 @ 384 kbps -iTunes
Language : Russian
Default : No
Forced : No
Audio #2
ID : 3
Format : DTS
Format/Info : Digital Theater Systems
Codec ID : A_DTS
Duration : 1h 40mn
Bit rate mode : Constant
Bit rate : 1 510 Kbps
Channel(s) : 6 channels
Channel positions : Front: L C R, Side: L R, LFE
Sampling rate : 48.0 KHz
Bit depth : 24 bits
Compression mode : Lossy
Stream size : 1.06 GiB (13%)
Title : [ORIGINAL] DTS 5.1 @ 1509 kbps
Language : English
Default : No
Forced : No
Text
ID : 4
Format : UTF-8
Codec ID : S_TEXT/UTF8
Codec ID/Info : UTF-8 Plain Text
Title : Full-length
Language : English
Default : No
Forced : No
Menu
00:00:00.000 : en:1
00:06:42.000 : en:2
00:12:24.000 : en:3
00:19:10.000 : en:4
00:24:54.000 : en:5
00:30:46.000 : en:6
00:35:45.000 : en:7
00:41:25.000 : en:8
00:46:57.000 : en:9
00:52:49.000 : en:10
00:57:53.000 : en:11
01:03:23.000 : en:12
01:13:47.000 : en:13
01:21:11.000 : en:14
01:36:55.000 : en:15

Скриншоты

[Профиль] [ЛС]
Показать сообщения:    

Текущее время: Сегодня 20:46

Часовой пояс: GMT



Вы не можете начинать темы
Вы не можете отвечать на сообщения
Вы не можете редактировать свои сообщения
Вы не можете удалять свои сообщения
Вы не можете голосовать в опросах
Вы не можете прикреплять файлы к сообщениям
Вы не можете скачивать файлы