Тройной форсаж: Токийский Дрифт / The Fast and the Furious: Tokyo Drift (2006) BDRemux 2160p | 4K | HDR | D, A

 
Автор Сообщение

BOSS ®

Пол:

Стаж: 4 года

Сообщений: 12088

Откуда: ODESSA



Награды: 22 (Подробнее)

Mega Seeder 5 (Количество: 1) Mega Releaser 4 (Количество: 1) Mega Seeder 4 (Количество: 1)
Торрент-статистика

Создавать темы 10-Окт-2018 17:41

[Цитировать]

Информация о фильме
Название: Тройной форсаж: Токийский Дрифт
Оригинальное название: The Fast and the Furious: Tokyo Drift
Год выхода: 2006
Жанр: Боевик, триллер, драма, криминал
Режиссер: Джастин Лин
В ролях: Лукас Блэк, Бау Вау, Санг Кенг, Брайан Ти, Натали Келли, Брайан Гудман, Джейсон Дж. Тобин, Кейко Китагава, Закари Ти Брайан, Никки Гриффин, Брэндон Брендел, Дэниэл Буко, Дэвид Томас, Эмбер Стивенс, Ашика Гонья, Кристиан Салазар, Кевин Кайра, Трей Санфорд, Дэнни Рэй МакДональд II, Винсент Лареска, Джои Крамптон, Линда Бойд, Йоко Маки, Рай Шибата, Дэмиен Марцетт, Тоши Хайама, Этли Сиау, Леонардо Нам, Кадзуки Намиока, Хироши Хатаяма, Трула М. Маркус, Кайла Ю, Аико Танака, Сатоси Цумабуки, Элден Виллаверде, Конишики, Джимми Лин, Кэролайн де Со
О фильме:
Шон Босуэлл — одинокий парень, который хочет казаться профи уличных гонок. Он бесшабашно гоняется по улицам города, пытаясь убежать от жизненных невзгод и наживая себе врагов среди местных властей. Когда Шону грозит тюрьма, его от греха подальше отсылают к отцу — профессиональному военному, который служит на военной базе в Японии.В незнакомой стране, живущей по своим законам, Шон чувствует себя еще большим изгоем. Однако вскоре его американский приятель Твинки знакомит его с миром подпольного дрифт-рейсинга. Раньше Шон просто тупо гонялся по улицам, а здесь перед ним открылся целый мир своеобразного искусства из металла и резины, дороги которого оказались невообразимо круты на поворотах…

Страна: США, Германия
Студия: MP Munich Pape Filmproductions, Original Film, Relativity Media, Universal Pictures
Продолжительность: 01:44:14
Перевод: Дублированный, авторский
Файл
Кодек: H.265
Качество: BDRemux 2160p
Видео: HEVC HDR, 70.7 Mбит/с, 3840x2160, 23.976 кадр/с
Звук:
Русский (AC3, 6 ch, 448 Кбит/с) / Дублированный (Blu-ray Universal Pictures Rus)
Русский (DTS-HD MA, 6 ch, 4422 Кбит/с) / Дублированный (Loud_Swir)
Русский (AC3, 6 ch, 448 Кбит/с) / Авторский (Гаврилов)
Русский (AC3, 6 ch, 448 Кбит/с) / Авторский (Немахов)
Английский (DTS-HD MA, 8 ch, 4138 Кбит/с)
Субтитры: Русские (Форсированные, полные), английские (SDH)
Семпл

MI

General
Unique ID : 35142050194199461708751119530557666234 (0x1A701CD870B727E8C343EAC5106F73BA)
Complete name : D:uTorrentThe.Fast.and.the.Furious.Tokyo.Drift.2006.BDRemux.2160p.HDR.MediaClub.mkv
Format : Matroska
Format version : Version 4
File size : 58.6 GiB
Duration : 1 h 44 min
Overall bit rate mode : Variable
Overall bit rate : 80.5 Mb/s
Encoded date : UTC 2018-10-01 14:14:10
Writing application : mkvmerge v25.0.0 ('Prog Noir') 64-bit
Writing library : libebml v1.3.6 + libmatroska v1.4.9
Cover : Yes
Attachments : cover.jpg
Video
ID : 1
Format : HEVC
Format/Info : High Efficiency Video Coding
Commercial name : HDR10
Format profile : Main 10@L5.1@High
Codec ID : V_MPEGH/ISO/HEVC
Duration : 1 h 44 min
Bit rate : 70.7 Mb/s
Width : 3 840 pixels
Height : 2 160 pixels
Display aspect ratio : 16:9
Frame rate mode : Constant
Frame rate : 23.976 (24000/1001) FPS
Color space : YUV
Chroma subsampling : 4:2:0 (Type 2)
Bit depth : 10 bits
Bits/(Pixel*Frame) : 0.356
Stream size : 51.4 GiB (88%)
Title : BDRemux.2160p.HDR by Silverok
Writing library : ATEME Titan File 3.8.16 (4.8.16.0)
Default : Yes
Forced : No
Color range : Limited
Color primaries : BT.2020
Transfer characteristics : PQ
Matrix coefficients : BT.2020 non-constant
Mastering display color primaries : Display P3
Mastering display luminance : min: 0.0050 cd/m2, max: 1000 cd/m2
Maximum Content Light Level : 793 cd/m2
Maximum Frame-Average Light Level : 73 cd/m2
Audio #1
ID : 2
Format : AC-3
Format/Info : Audio Coding 3
Commercial name : Dolby Digital
Codec ID : A_AC3
Duration : 1 h 44 min
Bit rate mode : Constant
Bit rate : 448 kb/s
Channel(s) : 6 channels
Channel layout : L R C LFE Ls Rs
Sampling rate : 48.0 kHz
Frame rate : 31.250 FPS (1536 SPF)
Bit depth : 16 bits
Compression mode : Lossy
Stream size : 334 MiB (1%)
Title : дублированный (Blu-ray Universal Pictures Rus)
Language : Russian
Service kind : Complete Main
Default : Yes
Forced : No
Audio #2
ID : 3
Format : DTS XLL
Format/Info : Digital Theater Systems
Commercial name : DTS-HD Master Audio
Codec ID : A_DTS
Duration : 1 h 44 min
Bit rate mode : Variable
Bit rate : 4 422 kb/s
Channel(s) : 6 channels
Channel layout : C L R Ls Rs LFE
Sampling rate : 48.0 kHz
Frame rate : 93.750 FPS (512 SPF)
Bit depth : 24 bits
Compression mode : Lossless
Delay relative to video : 9 ms
Stream size : 3.22 GiB (5%)
Title : дублированный (Loud_Swir)
Language : Russian
Default : No
Forced : No
Audio #3
ID : 4
Format : AC-3
Format/Info : Audio Coding 3
Commercial name : Dolby Digital
Codec ID : A_AC3
Duration : 1 h 44 min
Bit rate mode : Constant
Bit rate : 448 kb/s
Channel(s) : 6 channels
Channel layout : L R C LFE Ls Rs
Sampling rate : 48.0 kHz
Frame rate : 31.250 FPS (1536 SPF)
Bit depth : 16 bits
Compression mode : Lossy
Stream size : 334 MiB (1%)
Title : Авторский (Гаврилов)
Language : Russian
Service kind : Complete Main
Default : No
Forced : No
Audio #4
ID : 5
Format : AC-3
Format/Info : Audio Coding 3
Commercial name : Dolby Digital
Codec ID : A_AC3
Duration : 1 h 44 min
Bit rate mode : Constant
Bit rate : 448 kb/s
Channel(s) : 6 channels
Channel layout : L R C LFE Ls Rs
Sampling rate : 48.0 kHz
Frame rate : 31.250 FPS (1536 SPF)
Bit depth : 16 bits
Compression mode : Lossy
Stream size : 334 MiB (1%)
Title : Авторский (Немахов)
Language : Russian
Service kind : Complete Main
Default : No
Forced : No
Audio #5
ID : 6
Format : DTS XLL X
Format/Info : Digital Theater Systems
Commercial name : DTS-HD Master Audio
Codec ID : A_DTS
Duration : 1 h 44 min
Bit rate mode : Variable
Bit rate : 4 138 kb/s
Channel(s) : 8 channels
Channel(s)_Original : Object Based
Channel layout : Object Based
Sampling rate : 48.0 kHz
Frame rate : 93.750 FPS (512 SPF)
Bit depth : 24 bits
Stream size : 3.01 GiB (5%)
Language : English
Default : No
Forced : No
Text #1
ID : 7
Format : UTF-8
Codec ID : S_TEXT/UTF8
Codec ID/Info : UTF-8 Plain Text
Duration : 1 h 38 min
Bit rate : 0 b/s
Count of elements : 7
Stream size : 214 Bytes (0%)
Title : Forced
Language : Russian
Default : Yes
Forced : No
Text #2
ID : 8
Format : UTF-8
Codec ID : S_TEXT/UTF8
Codec ID/Info : UTF-8 Plain Text
Duration : 1 h 34 min
Bit rate : 50 b/s
Count of elements : 730
Stream size : 34.8 KiB (0%)
Title : Full
Language : Russian
Default : No
Forced : No
Text #3
ID : 9
Format : UTF-8
Codec ID : S_TEXT/UTF8
Codec ID/Info : UTF-8 Plain Text
Duration : 1 h 41 min
Bit rate : 32 b/s
Count of elements : 927
Stream size : 24.5 KiB (0%)
Title : SDH
Language : English
Default : No
Forced : No
Menu
00:00:00.000 : :Chapter 1
00:03:04.434 : :Chapter 2
00:09:43.499 : :Chapter 3
00:12:10.688 : :Chapter 4
00:16:15.391 : :Chapter 5
00:20:16.840 : :Chapter 6
00:26:36.469 : :Chapter 7
00:32:56.849 : :Chapter 8
00:41:14.305 : :Chapter 9
00:46:34.792 : :Chapter 10
00:52:55.172 : :Chapter 11
00:58:20.038 : :Chapter 12
01:01:46.160 : :Chapter 13
01:05:50.404 : :Chapter 14
01:08:56.006 : :Chapter 15
01:16:14.528 : :Chapter 16
01:20:31.326 : :Chapter 17
01:26:53.166 : :Chapter 18
01:34:59.860 : :Chapter 19
01:37:33.764 : :Chapter 20

Скриншоты

[Профиль] [ЛС]
Показать сообщения:    

Текущее время: Сегодня 12:31

Часовой пояс: GMT



Вы не можете начинать темы
Вы не можете отвечать на сообщения
Вы не можете редактировать свои сообщения
Вы не можете удалять свои сообщения
Вы не можете голосовать в опросах
Вы не можете прикреплять файлы к сообщениям
Вы не можете скачивать файлы