Тройной форсаж: Токийский Дрифт / The Fast and the Furious: Tokyo Drift (Джастин Лин / Justin Lin) [2006, США, Германия, боевик, триллер, драма, криминал, HDRip] Dub CEE

 
Автор Сообщение

painkiller ®

Стаж: 2 года 3 месяца

Сообщений: 582



Награды: Нет

Торрент-статистика

Создавать темы 17-Авг-2014 01:01

[Цитировать]

Тройной форсаж: Токийский Дрифт / The Fast and the Furious: Tokyo Drift
«На улицах Токио, слово «скорость» не нуждается в переводе.»
6.80 | 5.90--
Страна: США, Германия / Universal Pictures, Original Film
Жанр: боевик, триллер, драма, криминал
Год выпуска: 2006
Продолжительность: 01:44:14
Перевод: Профессиональный (дублированный) CEE
Cубтитры: нет
Оригинальная аудиодорожка: нет--Режиссер: Джастин Лин / Justin Lin--В ролях: Лукас Блэк (Sean Boswell), Бау Вау (Twinkie), Санг Кенг (Han), Брайан Ти (D.K.), Натали Келли (Neela), Брайан Гудман (Major Boswell), Джейсон Дж. Тобин (Earl), Кейко Китагава (Reiko), Закари Ти Брайан (Clay), Никки Гриффин (Cindy - Clay's Girlfriend), Дэмиен Марцетт (High School Security Guard), Трула М. Маркус (American Math Teacher)--Описание: Шон Босуэлл — одинокий парень, который хочет казаться профи уличных гонок. Он бесшабашно гоняется по улицам города, пытаясь убежать от жизненных невзгод и наживая себе врагов среди местных властей. Когда Шону грозит тюрьма, его от греха подальше отсылают к отцу — профессиональному военному, который служит на военной базе в Японии. В незнакомой стране, живущей по своим законам, Шон чувствует себя еще большим изгоем. Однако вскоре его американский приятель Твинки знакомит его с миром подпольного дрифт-рейсинга. Раньше Шон просто тупо гонялся по улицам, а здесь перед ним открылся целый мир своеобразного искусства из металла и резины, дороги которого оказались невообразимо круты на поворотах…--Сэмпл--Качество видео: HDRip | исх. [Fast & Furious: The Collection.1080p.BDRip]
Формат видео: AVI
Видео: 640x272 (2.35:1), 23.976 fps, XviD build 65 ~869 kbps avg, 0.20 bit/pixel
Аудио: 48 kHz, MPEG Layer 3, 2 ch, ~128.00 kbps avg (Dub)

MediaInfo

Общее
Полное имя : A:\Фильмы\The.Fast.and.the.Furious.Tokyo.Drift.2006.HDRip.XviD.750Mb.mp3.avi
Формат : AVI
Формат/Информация : Audio Video Interleave
Размер файла : 750 Мбайт
Продолжительность : 1 ч. 44 м.
Общий поток : 1006 Кбит/сек
Программа кодирования : VirtualDubMod 1.5.10.2 (build 2540/release)
Библиотека кодирования : VirtualDubMod build 2540/release
Видео
Идентификатор : 0
Формат : MPEG-4 Visual
Профиль формата : Advanced Simple@L5
Параметр BVOP формата : 1
Параметр QPel формата : Нет
Параметр GMC формата : Без точки перехода
Параметр матрицы формата : Выборочная
Идентификатор кодека : XVID
Идентификатор кодека/Подсказка : XviD
Продолжительность : 1 ч. 44 м.
Битрейт : 869 Кбит/сек
Ширина : 640 пикселей
Высота : 272 пикселя
Соотношение сторон : 2,35:1
Частота кадров : 23,976 кадра/сек
Цветовое пространство : YUV
Субдискретизация насыщенности : 4:2:0
Битовая глубина : 8 бит
Тип развёртки : Прогрессивная
Метод сжатия : С потерями
Бит/(Пиксели*Кадры) : 0.208
Размер потока : 648 Мбайт (86%)
Библиотека кодирования : XviD 65
Аудио
Идентификатор : 1
Формат : MPEG Audio
Версия формата : Version 1
Профиль формата : Layer 3
Идентификатор кодека : 55
Идентификатор кодека/Подсказка : MP3
Продолжительность : 1 ч. 44 м.
Вид битрейта : Постоянный
Битрейт : 128 Кбит/сек
Каналы : 2 канала
Частота : 48,0 КГц
Метод сжатия : С потерями
Размер потока : 95,4 Мбайт (13%)
Выравнивание : Соединение по промежуткам
Продолжительность промежутка : 42 мс. (1,00 видеокадр)
Время предзагрузки промежутка : 504 мс.
Библиотека кодирования : LAME3.99r
Настройки программы : -m s -V 4 -q 2 -lowpass 17 -b 128

Скриншот c названием фильма

Скриншоты

[Профиль] [ЛС]

Создавать темы 06-Авг-2015 23:09 (спустя 11 месяцев 20 дней)

Топик был перенесен из форума Фильмы до 2014 года в форум Фильмы до 2012 года
sergej644
 
Показать сообщения:    

Текущее время: Сегодня 12:10

Часовой пояс: GMT



Вы не можете начинать темы
Вы не можете отвечать на сообщения
Вы не можете редактировать свои сообщения
Вы не можете удалять свои сообщения
Вы не можете голосовать в опросах
Вы не можете прикреплять файлы к сообщениям
Вы не можете скачивать файлы