Три ямы, два гвоздя и ствол / Three Holes, Two Brads, and a Smoking Gun (2015) WEB-DLRip | Р

 
Автор Сообщение

BOSS ®

Пол:

Стаж: 2 года 1 месяц

Сообщений: 3731

Откуда: ODESSA



Награды: 20 (Подробнее)

Top Releaser 3 (Количество: 1) Top Keeper 4 (Количество: 1) Mega Releaser 1 (Количество: 1)
Торрент-статистика

Создавать темы 20-Май-2016 04:52

[Цитировать]

Три ямы, два гвоздя и ствол / Three Holes, Two Brads, and a Smoking Gun
Страна: США
Производство: ZKPassion Motion Pictures, Future Proof Films
Год выпуска: 2015
Жанр: триллер, драма, криминал
Продолжительность: 01:29:27
Режиссер: Хиларион Бэнкс
Автор сценария: Скотт Файвелсон
В ролях: Зухер Кхан, Джеймс Уайлдер, Жоаким ди Алмейда, Рудольф Мартин, Мэтт Кейбл, Ричард Эдсон, Ховард МакНейр, Ребекка Мэй Палмер
Описание: Молодому сценаристу очень непросто прорваться в мир большого кино. Его там никто особо не ждет, и чтобы пробиться наверх, придется сильно попотеть. А в помощь молодому сценаристу всегда найдется вышедший в тираж бывалый сценарист...

Перевод: Профессиональный (многоголосый, закадровый) | официальный звук
Субтитры: нет-Качество: WEB-DLRip
Формат: АVI
Видео кодек: XviD
Аудио кодек: АС3
Видео: 720x360 (2.000), 25.000 fps, XviD ~1 200 kbps avg, 0.185 bits/рixel
Аудио: 48.0 kHz, AC3 Dolby Digital, 2/0 (L,R) ch, ~192 kbps
Дата премьеры (мир): 20 марта 2015

Media Info

General
Format : AVI
Format/Info : Audio Video Interleave
Overall bit rate : 1 405 Kbps
Writing application : VirtualDubMod 1.5.10.2 (build 2540/release)
Writing library : VirtualDubMod build 2540/release
Video
ID : 0
Format : MPEG-4 Visual
Format profile : Advanced Simple@L5
Format settings, BVOP : 2
Format settings, QPel : No
Format settings, GMC : No warppoints
Format settings, Matrix : Default (MPEG)
Codec ID : XVID
Codec ID/Hint : XviD
Bit rate : 1 200 Kbps
Width : 720 pixels
Height : 360 pixels
Display aspect ratio : 2.000
Frame rate : 25.000 fps
Color space : YUV
Chroma subsampling : 4:2:0
Bit depth : 8 bits
Scan type : Progressive
Compression mode : Lossy
Bits/(Pixel*Frame) : 0.185
Stream size : 4.78 MiB (85%)
Writing library : XviD 1.2.1 (UTC 2008-12-04)
Audio
ID : 1
Format : AC-3
Format/Info : Audio Coding 3
Mode extension : CM (complete main)
Format settings, Endianness : Big
Codec ID : 2000
Bit rate mode : Constant
Bit rate : 192 Kbps
Channel(s) : 2 channels
Channel positions : Front: L R
Sampling rate : 48.0 KHz
Compression mode : Lossy
Stream size : 784 KiB (14%)
Alignment : Split accross interleaves
Interleave, duration : 41 ms (1.01 video frame)
Interleave, preload duration : 500 ms

Скриншоты

[Профиль] [ЛС]
Кто просматривает тему:

Показать сообщения:    

Текущее время: Сегодня 06:02

Часовой пояс: GMT



Вы не можете начинать темы
Вы не можете отвечать на сообщения
Вы не можете редактировать свои сообщения
Вы не можете удалять свои сообщения
Вы не можете голосовать в опросах
Вы не можете прикреплять файлы к сообщениям
Вы не можете скачивать файлы