Три часа на побег / В упор / Под огнем / А bout portant / Point Blank / À bout portant (Фред Кавайе / Fred Cavayé) (2010) BDRip

 
Автор Сообщение

Russian Mafia ®

Пол:

Стаж: 1 год 8 месяцев

Сообщений: 4256



Награды: 10 (Подробнее)

За внесенный вклад в развитие сайта (Количество: 1) Top Releaser 4 (Количество: 1) Mega Seeder 5 (Количество: 1)
Торрент-статистика

Создавать темы 13-Окт-2015 10:49

[Цитировать]

Три часа на побег / В упор / Под огнем
А bout portant / Point Blank / À bout portant

Год выпуска: 2010
Страна: Франция
Жанр: боевик, триллер, криминал
Продолжительность: 01:24:01
Перевод#1: Профессиональный (многоголосый, закадровый) - лицензия R5
Перевод#2: Авторский (одноголосый закадровый) - Гаврилов
Перевод#3: Одноголосый закадровый) - DeMon
Перевод#4: Профессиональный (многоголосый, закадровый)
Оригинальная дорожка: Французский
Субтитры: русские, украинские
Режиссер: Фред Кавайе / Fred Cavayé
В ролях: Жиль Леллуш (Samuel Pierret), Рошди Зем (Hugo Sartet), Жерар Ланвен (Commandant Patrick Werner), Елена Анайя (Nadia Pierret), Мирей Перье (Commandant Fabre), Клер Перо (Capitaine Anaïs Susini), Мусса Мааскри (Capitaine Vogel), Пьер Бенуа (Capitaine Mercier), Валери Дэшвуд (Capitaine Moreau), Вёрджил Брэмли (Capitaine Mansart), Никки Нод (Capitaine Richert), Адель Беншериф (Luc Sartet)-Бюджет: $16 000 000
Мировая премьера: 1 ноября 2010-Описание: Профессия Сэмюэля Перрье - спасать людей. Но в этот раз медбрат спас ну совсем «не того» парня. И вот теперь его беременную жену похитили бандиты, чтоб заставить Сэмюэля помочь их пахану свалить из больницы. Чтобы спасти жену и выжить самому, ему предстоит выиграть смертельные гонки на выживание с бандитами и полицейскими не только по улицам Парижа, но и под землей.-]Рейтинг
kinopoisk.ru: 7.098 (2593)
imdb.com: 6.90 (9364)
MPAA: R - Лицам до 17 лет обязательно присутствие взрослого
-Качество: BDRip [Talian70 / BDRemux / 1080p]
Формат: AVI
Видео: 720x304 (2.37:1), 24 fps, XviD build 72 ~1885 kbps avg, 0.36 bit/pixel
Аудио#1: 48 kHz, AC3 Dolby Digital, 3/2 (L,C,R,l,r) + LFE ch, ~384 kbps - RusMVO[R5]*
Аудио#2: 48 kHz, AC3 Dolby Digital, 2 ch, ~192 kbps - Original(Fre)
Аудио#3: 48 kHz, AC3 Dolby Digital, 3/2 (L,C,R,l,r) + LFE ch, ~448 kbps - RusAVO[Гаврилов] - отдельным файлом взята из BD-рипа L@VR
Аудио#4: 48 kHz, AC3 Dolby Digital, 3/2 (L,C,R,l,r) + LFE ch, ~384 kbps - RusVO[DeMon] - отдельным файлом взят из BD-рипа Юриста
Аудио#5: 48 kHz, AC3 Dolby Digital, 3/2 (L,C,R,l,r) + LFE ch, ~448 kbps - RusMVO**отдельным файлом взята из HD-рипа (?Кинозал, Рутор)
Субтитры #1: Русские - SoftSUB, **.srt отдельным файлом
Субтитры #2: Украинские - SoftSUB, **.srt отдельным файлом

Скриншоты

MediaInfo

Общее
Полное имя                               : F:\RT\Tri_Chasa_na_Pobeg.2010.XviD.BDRip\Tri_Chasa_na_Pobeg.2010.XviD.BDRip.avi
Формат                                   : AVI
Формат/Информация                        : Audio Video Interleave
Размер файла                             : 1,45 Гбайт
Продолжительность                        : 1 ч. 24 м.
Общий поток                              : 2477 Кбит/сек
Название фильма                          : В упор / A bout portant [2010]
Режиссёр                                 : Юpист
Программа кодирования                    : VirtualDubMod 1.5.10.3 | www.virtualdub-fr.org || (build 2550/release)
Библиотека кодирования                   : VirtualDubMod build 2550/release
Правообладатель                          : RG "All films" [torrentfilm.net]
Видео
Идентификатор                            : 0
Формат                                   : MPEG-4 Visual
Профиль формата                          : Advanced Simple@L5
Параметр BVOP формата                    : 1
Параметр QPel формата                    : Нет
Параметр GMC формата                     : Без точки перехода
Параметр матрицы формата                 : Выборочная
Идентификатор кодека                     : XVID
Идентификатор кодека/Подсказка           : XviD
Продолжительность                        : 1 ч. 24 м.
Битрейт                                  : 1887 Кбит/сек
Ширина                                   : 720 пикселей
Высота                                   : 304 пикселя
Соотношение сторон                       : 2,35:1
Частота кадров                           : 24,000 кадра/сек
Цветовое пространство                    : YUV
Субдискретизация насыщенности            : 4:2:0
Битовая глубина                          : 8 бит
Тип развёртки                            : Прогрессивная
Метод сжатия                             : С потерями
Бит/(Пиксели*Кадры)                      : 0.359
Размер потока                            : 1,11 Гбайт (76%)
Библиотека кодирования                   : XviD 72
Аудио #1
Идентификатор                            : 1
Формат                                   : AC-3
Формат/Информация                        : Audio Coding 3
Расширение режима                        : CM (complete main)
Параметр Endianness формата              : Big
Идентификатор кодека                     : 2000
Продолжительность                        : 1 ч. 24 м.
Вид битрейта                             : Постоянный
Битрейт                                  : 384 Кбит/сек
Каналы                                   : 6 каналов
Расположение каналов                     : Front: L C R, Side: L R, LFE
Частота                                  : 48,0 КГц
Битовая глубина                          : 16 бит
Метод сжатия                             : С потерями
Размер потока                            : 231 Мбайт (16%)
Выравнивание                             : Разделение по промежуткам
Продолжительность промежутка             : 42  мс. (1,00 видеокадр)
Время предзагрузки промежутка            : 500  мс.
Аудио #2
Идентификатор                            : 2
Формат                                   : AC-3
Формат/Информация                        : Audio Coding 3
Расширение режима                        : CM (complete main)
Параметр Endianness формата              : Big
Идентификатор кодека                     : 2000
Продолжительность                        : 1 ч. 24 м.
Вид битрейта                             : Постоянный
Битрейт                                  : 192 Кбит/сек
Каналы                                   : 2 канала
Расположение каналов                     : Front: L R
Частота                                  : 48,0 КГц
Битовая глубина                          : 16 бит
Метод сжатия                             : С потерями
Размер потока                            : 115 Мбайт (8%)
Выравнивание                             : Разделение по промежуткам
Продолжительность промежутка             : 42  мс. (1,00 видеокадр)
Время предзагрузки промежутка            : 500  мс.
[Профиль] [ЛС]

Создавать темы 12-Июн-2016 07:53 (спустя 7 месяцев 29 дней)

Топик был перенесен из форума Фильмы 2011 года в форум Фильмы 2010 года
Russian Mafia
 
Кто просматривает тему:

Показать сообщения:    

Текущее время: Сегодня 22:07

Часовой пояс: GMT



Вы не можете начинать темы
Вы не можете отвечать на сообщения
Вы не можете редактировать свои сообщения
Вы не можете удалять свои сообщения
Вы не можете голосовать в опросах
Вы не можете прикреплять файлы к сообщениям
Вы не можете скачивать файлы