Три сыщика и тайна острова Скелетов / The Three Investigators and the Secret of Skeleton Island (Флориан Баксмейер / Florian Baxmeyer) [2007, Германия, ЮАР, детектив, приключения, семейный, DVB] Dub

 
Автор Сообщение

TorrentFilm ®

Пол:

Стаж: 2 года

Сообщений: 7741



Награды: Нет

Торрент-статистика

Создавать темы 20-Дек-2014 02:00

[Цитировать]

Три сыщика и тайна острова Скелетов / The Three Investigators and the Secret of Skeleton Island Страна: Германия, ЮАР
Жанр: детектив, приключения, семейный
Год выпуска: 2007
Продолжительность: 01:24:30
Перевод: Профессиональный (дублированный)
Cубтитры: нет
Режиссер: Флориан Баксмейер / Florian Baxmeyer
В ролях: Ченселлор Миллер, Ник Прайс, Камерон Монахэн, Найма Себе, Найджел Уитми, Акин Омотосо, Фиона Рэмси, Лэнгли Кирквуд, Джеймс Фолкнер, Янник Шуманн
Описание: Герои фильма — неразлучные друзья: Боб Андрюс, Пит Креншоу и Юпитер Джонс. Живут они в городке Роки-Бич на берегу Тихого океана, недалеко от Голливуда. Их опорный пункт — склад утильсырья, их штаб-квартира — старый автоприцеп, в котором они оборудовали криминалистическую лабораторию. Их агентство «Три Сыщика» раскрывает любые секреты, загадки, головоломки.
Сэмпл: http://rusfolder.com/42356553

Качество видео: DVB
Формат видео: TS
Видео: AVC/H.264, 720x576 (4:3), 25 fps, 2671kbps
Аудио: русский, Mp-2, 48 kHz, 2 ch, 192 kbps

MediaInfo

Общее
Идентификатор : 1 (0x1)
Полное имя : D:\Три сыщика и тайна острова Скелетов.ts
Формат : MPEG-TS
Размер файла : 1,78 Гбайт
Продолжительность : 1 ч. 24 м.
Режим общего битрейта : Переменный
Общий поток : 3014 Кбит/сек
Видео
Идентификатор : 1081 (0x439)
Идентификатор меню : 1 (0x1)
Формат : AVC
Формат/Информация : Advanced Video Codec
Профиль формата : Main@L3.0
Параметр CABAC формата : Да
Параметр ReFrames формата : 3 кадра
Параметр GOP формата : M=4, N=28
Идентификатор кодека : 27
Продолжительность : 1 ч. 24 м.
Битрейт : 2671 Кбит/сек
Ширина : 720 пикселей
Высота : 576 пикселей
Соотношение сторон : 4:3
Частота кадров : 25,000 кадров/сек
Стандарт вещания : Component
Цветовое пространство : YUV
Субдискретизация насыщенности : 4:2:0
Битовая глубина : 8 бит
Тип развёртки : Чересстрочная
Порядок развёртки : Верхнее поле первое
Бит/(Пиксели*Кадры) : 0.258
Размер потока : 1,58 Гбайт (89%)
Основные цвета : BT.601 PAL
Характеристики трансфера : BT.470 System B, BT.470 System G
Коэффициенты матрицы : BT.601
Аудио
Идентификатор : 1082 (0x43A)
Идентификатор меню : 1 (0x1)
Формат : MPEG Audio
Версия формата : Version 1
Профиль формата : Layer 2
Идентификатор кодека : 3
Продолжительность : 1 ч. 24 м.
Вид битрейта : Постоянный
Битрейт : 192 Кбит/сек
Каналы : 2 канала
Частота : 48,0 КГц
Метод сжатия : С потерями
Размер потока : 116 Мбайт (6%)

Скриншот c названием фильма

Скриншоты

-Три сыщика и тайна замка ужасов: http://torrentfilm.net/forum/viewtopic.php?t=4874413
[Профиль] [ЛС]

Создавать темы 06-Авг-2015 22:53 (спустя 7 месяцев 17 дней)

Топик был перенесен из форума Фильмы до 2014 года в форум Фильмы до 2012 года
sergej644
 
Кто просматривает тему:

Показать сообщения:    

Текущее время: Сегодня 02:15

Часовой пояс: GMT



Вы не можете начинать темы
Вы не можете отвечать на сообщения
Вы не можете редактировать свои сообщения
Вы не можете удалять свои сообщения
Вы не можете голосовать в опросах
Вы не можете прикреплять файлы к сообщениям
Вы не можете скачивать файлы