Три сыщика и тайна замка ужасов / The Three Investigators and the Secret of Terror Castle / Die drei Fragezeichen - Das verfluchte Schloss (Флориан Баксмейер / Florian Baxmeyer) [2009, Германия, детектив, приключения, семейный, DVDRip] Dub + Ger

 
Автор Сообщение

TorrentFilm ®

Пол:

Стаж: 2 года

Сообщений: 7741



Награды: Нет

Торрент-статистика

Создавать темы 21-Дек-2014 02:00

[Цитировать]

Три сыщика и тайна замка ужасов / Die drei ??? - Das verfluchte Schloss / Die drei Fragezeichen - Das verfluchte Schloss
Страна: Германия
Жанр: детектив, приключения, семейный
Год выпуска: 2009
Продолжительность: 01:33:00
Перевод: Профессиональный (дублированный) по заказу ЗАО "Первый канал. Всемирная сеть"
Cубтитры: нет
Оригинальная аудиодорожка: немецкий
Режиссер: Флориан Баксмейер / Florian Baxmeyer
В ролях: Ченселлор Миллер, Ник Прайс, Камерон Монахэн, Джеймс Фолкнер, Анетт Кемп, Джонатан Пиенаар
Описание: Таинственная видеокассета попадает в руки Юпитера Джонса, Пита Креншоу и Боба Андрюса во время вечеринки по поводу Дня Рождения Юпа. Вряд ли это могло быть случайностью! На видеокассете оказалось видео погибших родителей Юпитера. В своем сообщении они дают своему сыну ключ к разгадке новой тайны!
Три Сыщика не колеблются ни секунды! Они сразу едут на заброшенную территорию сумасшедшего фантазера Террила, расположенную в отдаленном лесу в Северной Калифорнии. По слухам, это место полно привидений! Хотя Юпитер, Пит и Боб достаточно сообразительная команда, они должны показать все свое мужество и решиться войти в призрачные руины. Сразу становится понятно, происходит что-то странное и все эти сооружения являются проклятыми.
Но это еще не все. Дочь шерифа Каролина, которая имеет сверхъестественные способности, видит в Бобе душу из далекого прошлого! Без сомнений, это самая увлекательная и страшная тайна, с которой Три Сыщика когда-либо имели дело…
Доп. информация: Русская дорожка спЁрта из этой раздачи http://torrentfilm.net/forum/viewtopic.php?t=4874413. Оригинальную дорогу в угоду стандартному весу файла пережимать не стал, ибо тоже не рекомендуется.
Сэмпл: http://multi-up.com/1015487
Качество видео: DVDRip
Формат видео: AVI
Видео: MPEG4, XviD, 720x400 (16/9), 25.000 fps, 1 647 Kbps (0.229 bit/pixel)
Аудио: AC-3, 48.0 KHz, 2 ch, 192 Kbps, CBR - русский
Аудио 2: AC-3, 48.0 KHz, 6 ch, 448 Kbps, CBR - немецкий

MediaInfo

Общее
Полное имя : K:\Три сыщика и тайна замка ужасов.avi
Формат : AVI
Формат/Информация : Audio Video Interleave
Размер файла : 1,50 Гбайт
Продолжительность : 1 ч. 33 м.
Общий поток : 2301 Кбит/сек
Название фильма : Три сыщика и тайна замка ужасов / Die drei ??? - Das verfluchte Schloss / Die drei Fragezeichen - Das verfluchte Schloss (2009)
Программа кодирования : VirtualDubMod 1.5.10.2 (build 2540/release)
Библиотека кодирования : VirtualDubMod build 2540/release
Видео
Идентификатор : 0
Формат : MPEG-4 Visual
Профиль формата : Advanced Simple@L5
Параметр BVOP формата : 2
Параметр QPel формата : Нет
Параметр GMC формата : Без точки перехода
Параметр матрицы формата : Default (H.263)
Идентификатор кодека : XVID
Идентификатор кодека/Подсказка : XviD
Продолжительность : 1 ч. 33 м.
Битрейт : 1647 Кбит/сек
Ширина : 720 пикселей
Высота : 400 пикселей
Соотношение сторон : 16:9
Частота кадров : 25,000 кадров/сек
Цветовое пространство : YUV
Субдискретизация насыщенности : 4:2:0
Битовая глубина : 8 бит
Тип развёртки : Прогрессивная
Метод сжатия : С потерями
Бит/(Пиксели*Кадры) : 0.229
Размер потока : 1,07 Гбайт (72%)
Библиотека кодирования : XviD 1.2.1 (UTC 2008-12-04)
Аудио #1
Идентификатор : 1
Формат : AC-3
Формат/Информация : Audio Coding 3
Расширение режима : CM (complete main)
Параметр Endianness формата : Big
Идентификатор кодека : 2000
Продолжительность : 1 ч. 32 м.
Вид битрейта : Постоянный
Битрейт : 192 Кбит/сек
Каналы : 2 канала
Расположение каналов : Front: L R
Частота : 48,0 КГц
Битовая глубина : 16 бит
Метод сжатия : С потерями
Размер потока : 128 Мбайт (8%)
Выравнивание : Разделение по промежуткам
Продолжительность промежутка : 40 мс. (1,00 видеокадр)
Время предзагрузки промежутка : 500 мс.
Заголовок : Профессиональный (полное дублирование) Карусель
Аудио #2
Идентификатор : 2
Формат : AC-3
Формат/Информация : Audio Coding 3
Расширение режима : CM (complete main)
Параметр Endianness формата : Big
Идентификатор кодека : 2000
Продолжительность : 1 ч. 32 м.
Вид битрейта : Постоянный
Битрейт : 448 Кбит/сек
Каналы : 6 каналов
Расположение каналов : Front: L C R, Side: L R, LFE
Частота : 48,0 КГц
Битовая глубина : 16 бит
Метод сжатия : С потерями
Размер потока : 298 Мбайт (19%)
Выравнивание : Разделение по промежуткам
Продолжительность промежутка : 40 мс. (1,00 видеокадр)
Время предзагрузки промежутка : 500 мс.
Заголовок : Немецкий

Скриншоты

[Профиль] [ЛС]

Создавать темы 06-Авг-2015 22:54 (спустя 7 месяцев 16 дней)

Топик был перенесен из форума Фильмы до 2014 года в форум Фильмы до 2012 года
sergej644
 

Создавать темы 12-Июн-2016 08:48 (спустя 1 год 5 месяцев)

Топик был перенесен из форума Фильмы 2011 года в форум Фильмы 2009 года
Russian Mafia
 
Кто просматривает тему:

Показать сообщения:    

Текущее время: Сегодня 07:14

Часовой пояс: GMT



Вы не можете начинать темы
Вы не можете отвечать на сообщения
Вы не можете редактировать свои сообщения
Вы не можете удалять свои сообщения
Вы не можете голосовать в опросах
Вы не можете прикреплять файлы к сообщениям
Вы не можете скачивать файлы