Три сыщика и тайна замка ужасов / The Three Investigators and the Secret of Terror Castle (Флориан Баксмейер / Florian Baxmeyer) [2009, Германия, детектив, приключения, семейный, DVB] Dub

 
Автор Сообщение

TorrentFilm ®

Пол:

Стаж: 1 год 11 месяцев

Сообщений: 7741



Награды: Нет

Торрент-статистика

Создавать темы 20-Дек-2014 02:00

[Цитировать]

Три сыщика и тайна замка ужасов / The Three Investigators and the Secret of Terror Castle Страна: Германия
Жанр: детектив, приключения, семейный
Год выпуска: 2009
Продолжительность: 01:27:55
Перевод: Профессиональный (дублированный)
Cубтитры: нет
Режиссер: Флориан Баксмейер / Florian Baxmeyer
В ролях: Ченселлор Миллер, Ник Прайс, Камерон Монахэн, Джеймс Фолкнер, Анетт Кемп, Джонатан Пиенаар, Рон Смержак, Мартин Ле Мэтр, Катрин Кук, Юлиа Бремерман
Описание:
Таинственная видеокассета попадает в руки Юпитера Джонса, Пита Креншоу и Боба Андрюса во время вечеринки по поводу Дня Рождения Юпа. На ней оказалось видео погибших родителей Юпитера. В своем сообщении они дают своему сыну ключ к разгадке новой тайны.
Три Сыщика не колеблются ни секунды. Они сразу едут в заброшенный замок сумасшедшего изобретателя Террила, расположенный в отдаленном лесу в Северной Калифорнии. По слухам, это место полно привидений. Хотя Юпитер, Пит и Боб достаточно сообразительная команда, они должны показать все свое мужество и решиться войти в призрачные руины. Сразу становится понятно: происходит что-то странное и все эти сооружения являются проклятыми.

Доп.информация:
отличие от предыдущих раздач в озвучке. Профессиональный (дублированный)
Записано при помощи 2-х тюнерного ресивера Skyway DROID 2
Сэмпл: http://rusfolder.com/42344979

Качество видео: DVB
Формат видео: TS
Видео: AVC/H.264, 720x576 (4:3), 25 fps, 2673 kbps
Аудио: русский, Mp-2, 48 kHz, 2 ch, 192 kbps

MediaInfo

Общее
Идентификатор : 1 (0x1)
Полное имя : D:\Три сыщика и тайна замка ужасов (Romanok8691_DVB-T2).ts
Формат : MPEG-TS
Размер файла : 1,85 Гбайт
Продолжительность : 1 ч. 27 м.
Режим общего битрейта : Переменный
Общий поток : 3016 Кбит/сек
Видео
Идентификатор : 1081 (0x439)
Идентификатор меню : 1 (0x1)
Формат : AVC
Формат/Информация : Advanced Video Codec
Профиль формата : Main@L3.0
Параметр CABAC формата : Да
Параметр ReFrames формата : 3 кадра
Идентификатор кодека : 27
Продолжительность : 1 ч. 27 м.
Битрейт : 2673 Кбит/сек
Ширина : 720 пикселей
Высота : 576 пикселей
Соотношение сторон : 4:3
Частота кадров : 25,000 кадров/сек
Стандарт вещания : Component
Цветовое пространство : YUV
Субдискретизация насыщенности : 4:2:0
Битовая глубина : 8 бит
Тип развёртки : Чересстрочная
Порядок развёртки : Верхнее поле первое
Бит/(Пиксели*Кадры) : 0.258
Размер потока : 1,64 Гбайт (89%)
Основные цвета : BT.601 PAL
Характеристики трансфера : BT.470 System B, BT.470 System G
Коэффициенты матрицы : BT.601
Аудио
Идентификатор : 1082 (0x43A)
Идентификатор меню : 1 (0x1)
Формат : MPEG Audio
Версия формата : Version 1
Профиль формата : Layer 2
Идентификатор кодека : 3
Продолжительность : 1 ч. 27 м.
Вид битрейта : Постоянный
Битрейт : 192 Кбит/сек
Каналы : 2 канала
Частота : 48,0 КГц
Метод сжатия : С потерями
Размер потока : 121 Мбайт (6%)

Скриншот c названием фильма

Скриншоты

-Три сыщика и тайна острова Скелетов: http://torrentfilm.net/forum/viewtopic.php?t=4875957
[Профиль] [ЛС]

Создавать темы 06-Авг-2015 22:54 (спустя 7 месяцев 17 дней)

Топик был перенесен из форума Фильмы до 2014 года в форум Фильмы до 2012 года
sergej644
 

Создавать темы 12-Июн-2016 08:48 (спустя 1 год 5 месяцев)

Топик был перенесен из форума Фильмы 2011 года в форум Фильмы 2009 года
Russian Mafia
 
Кто просматривает тему:

Показать сообщения:    

Текущее время: Сегодня 14:00

Часовой пояс: GMT



Вы не можете начинать темы
Вы не можете отвечать на сообщения
Вы не можете редактировать свои сообщения
Вы не можете удалять свои сообщения
Вы не можете голосовать в опросах
Вы не можете прикреплять файлы к сообщениям
Вы не можете скачивать файлы