Три сыщика и тайна замка ужасов / The Three Investigators and the Secret of Terror Castle (Флориан Баксмейер / Florian Baxmeyer) [2009, Германия, детектив, приключения, семейный, DVDRip] VO (Омская птица)

 
Автор Сообщение

painkiller ®

Стаж: 2 года 3 месяца

Сообщений: 582



Награды: Нет

Торрент-статистика

Создавать темы 15-Авг-2014 10:16

[Цитировать]

Три сыщика и тайна замка ужасов / The Three Investigators and the Secret of Terror Castle
Страна: Германия
Жанр: детектив, приключения, семейный
Год выпуска: 2009
Продолжительность: 01:32:40
Перевод: Одноголосый закадровый Омская птица
Cубтитры: нет
Режиссер: Флориан Баксмейер / Florian Baxmeyer
В ролях: Ченселлор Миллер, Ник Прайс, Камерон Монахэн, Джеймс Фолкнер, Анетт Кемп, Джонатан Пиенаар
Описание: Таинственная видеокассета попадает в руки Юпитера Джонса, Пита Креншоу и Боба Андрюса во время вечеринки по поводу Дня Рождения Юпа. Вряд ли это могло быть случайностью! На видеокассете оказалось видео погибших родителей Юпитера. В своем сообщении они дают своему сыну ключ к разгадке новой тайны!
Три Сыщика не колеблются ни секунды! Они сразу едут на заброшенную территорию сумасшедшего фантазера Террила, расположенную в отдаленном лесу в Северной Калифорнии. По слухам, это место полно привидений! Хотя Юпитер, Пит и Боб достаточно сообразительная команда, они должны показать все свое мужество и решиться войти в призрачные руины. Сразу становится понятно, происходит что-то странное и все эти сооружения являются проклятыми.
Но это еще не все. Дочь шерифа Каролина, которая имеет сверхъестественные способности, видит в Бобе душу из далекого прошлого! Без сомнений, это самая увлекательная и страшная тайна, с которой Три Сыщика когда-либо имели дело…
Сэмпл: http://multi-up.com/970783
Качество видео: DVDRip
Формат видео: AVI
Видео: XviD, 720 x 304, ~1654 kbps, 25,000 кадров/сек
Аудио: AC-3, 6 ch, 448 kbps, 48,0 КГц

MediaInfo

I:\Три сыщика и тайна замка ужасов\The.Three.Investigators.And.The.Secret.Of.Terror.Castle_2009 DVDRip.avi
General
Complete name : I:\Три сыщика и тайна замка ужасов\The.Three.Investigators.And.The.Secret.Of.Terror.Castle_2009 DVDRip.avi
Format : AVI
Format/Info : Audio Video Interleave
Format profile : OpenDML
File size : 1.37 GiB
Duration : 1h 32mn
Overall bit rate : 2 114 Kbps
Writing application : Lavf51.12.1
Video #0
ID : 0
Format : MPEG-4 Visual
Format profile : Simple@L1
Format settings, BVOP : No
Format settings, QPel : No
Format settings, GMC : No warppoints
Format settings, Matrix : Default (H.263)
Codec ID : FMP4
Duration : 1h 32mn
Bit rate : 1 654 Kbps
Width : 720 pixels
Height : 304 pixels
Display aspect ratio : 2.35:1
Frame rate : 25.000 fps
Color space : YUV
Chroma subsampling : 4:2:0
Bit depth : 8 bits
Scan type : Progressive
Compression mode : Lossy
Bits/(Pixel*Frame) : 0.302
Stream size : 1.07 GiB (78%)
Writing library : Lavc51.40.4
Audio #1
ID : 1
Format : AC-3
Format/Info : Audio Coding 3
Mode extension : CM (complete main)
Format settings, Endianness : Big
Codec ID : 2000
Duration : 1h 32mn
Bit rate mode : Constant
Bit rate : 448 Kbps
Channel count : 6 channels
Channel positions : Front: L C R, Side: L R, LFE
Sampling rate : 48.0 KHz
Bit depth : 16 bits
Compression mode : Lossy
Stream size : 297 MiB (21%)
Alignment : Aligned on interleaves
Interleave, duration : 32 ms (0.80 video frame)
Interleave, preload duration : 32 ms

Скриншот c названием фильма

Скриншоты

[Профиль] [ЛС]

Создавать темы 06-Авг-2015 23:11 (спустя 11 месяцев 22 дня)

Топик был перенесен из форума Фильмы до 2014 года в форум Фильмы до 2012 года
sergej644
 

Создавать темы 12-Июн-2016 08:48 (спустя 1 год 9 месяцев)

Топик был перенесен из форума Фильмы 2011 года в форум Фильмы 2009 года
Russian Mafia
 
Кто просматривает тему:

Показать сообщения:    

Текущее время: Сегодня 07:04

Часовой пояс: GMT



Вы не можете начинать темы
Вы не можете отвечать на сообщения
Вы не можете редактировать свои сообщения
Вы не можете удалять свои сообщения
Вы не можете голосовать в опросах
Вы не можете прикреплять файлы к сообщениям
Вы не можете скачивать файлы