Три плюс два (Генрих Оганисян) [1963, СССР, комедия, BDRip 720p]

 
Автор Сообщение

TorrentFilm ®

Пол:

Стаж: 2 года

Сообщений: 7741



Награды: Нет

Торрент-статистика

Создавать темы 27-Июн-2015 00:10

[Цитировать]

Три плюс два (широкоэкранная версия)- Страна: СССР
Студия: Киностудия им. М. Горького, Рижская киностудия
Жанр: комедия
Год выпуска: 1963
Продолжительность: 01:39:22
Cубтитры: нет-Режиссер: Генрих Оганисян-В ролях:
Андрей Миронов, Евгений Жариков, Геннадий Нилов, Наталия Кустинская, Наталья Фатеева
Описание:
Трое друзей решили провести отпуск дикарями на берегу Черного моря. Но отдыху героев помешали две девушки, заявившие, что место по праву принадлежит им. Девушки не собираются уезжать и пытаются создать соседям невыносимые условия. Но вскоре вражда перерастает в любовь.-Сэмпл | Кинопоиск-Тип релиза: BDRip 720p / TRI_PLUS_DVA_HDCLUB, спасибо crazy_gringo
Контейнер: MKV
Видео: x264 (High@L4.1); 1280x528, Display aspect ratio 2.424:1, 23.976 fps, 7990 Kbps
Аудио: DTS: 24 bit 48 Khz; 5.1 ch 1509 Kbps; CBR

MediaInfo


-

x264 log

avs [info]: 1280x528p 1:1 @ 24000/1001 fps (cfr)
x264 [info]: using SAR=1/1
x264 [info]: using cpu capabilities: MMX2 SSE2Fast SSSE3 SSE4.2
x264 [info]: profile High, level 4.1
x264 [info]: frame I:854 Avg QP:16.43 size:139692
x264 [info]: frame P:35703 Avg QP:17.96 size: 68996
x264 [info]: frame B:106391 Avg QP:18.91 size: 31693
x264 [info]: consecutive B-frames: 4.3% 4.1% 8.7% 23.9% 18.2% 37.2% 2.5% 0.3% 0.3% 0.1% 0.1% 0.1% 0.3%
x264 [info]: mb I I16..4: 0.4% 85.0% 14.7%
x264 [info]: mb P I16..4: 0.0% 21.1% 1.0% P16..4: 25.1% 33.2% 19.2% 0.0% 0.0% skip: 0.3%
x264 [info]: mb B I16..4: 0.0% 3.8% 0.1% B16..8: 29.2% 29.2% 10.3% direct:11.9% skip:15.5% L0:33.5% L1:38.7% BI:27.8%
x264 [info]: 8x8 transform intra:94.9% inter:52.7%
x264 [info]: direct mvs spatial:98.3% temporal:1.7%
x264 [info]: coded y,uvDC,uvAC intra: 99.8% 79.8% 53.9% inter: 61.9% 28.5% 10.7%
x264 [info]: i16 v,h,dc,p: 8% 7% 11% 74%
x264 [info]: i8 v,h,dc,ddl,ddr,vr,hd,vl,hu: 7% 12% 14% 9% 12% 9% 13% 10% 15%
x264 [info]: i4 v,h,dc,ddl,ddr,vr,hd,vl,hu: 7% 11% 3% 8% 16% 13% 18% 10% 15%
x264 [info]: i8c dc,h,v,p: 38% 34% 16% 13%
x264 [info]: Weighted P-Frames: Y:2.3% UV:0.6%
x264 [info]: ref P L0: 48.1% 16.8% 16.3% 4.0% 3.9% 2.2% 2.5% 1.3% 1.5% 1.0% 1.2% 1.0% 0.1% 0.0%
x264 [info]: ref B L0: 82.6% 9.6% 2.7% 1.5% 1.0% 0.8% 0.6% 0.4% 0.4% 0.2% 0.1%
x264 [info]: ref B L1: 95.8% 4.2%
x264 [info]: kb/s:7989.82
x264 [total]: encoded 142948 frames, 6.76 fps, 7989.83 kb/s
-General
Unique ID : 239634436911017767294518196895866692554 (0xB447E9ED2E178AB09FD095AB551023CA)
Complete name : Три плюс два.1963.BDRip.720p.mkv
Format : Matroska
Format version : Version 2
File size : 6.59 GiB
Duration : 1h 39mn
Overall bit rate : 9 501 Kbps
Movie name : «Три плюс два»
Encoded date : UTC 2015-06-23 10:45:52
Writing application : mkvmerge v5.8.0 ('No Sleep / Pillow') built on Sep 2 2012 15:37:04
Writing library : libebml v1.2.3 + libmatroska v1.3.0
Comment : BDRip.720p
Originally released : June 22nd 2015
Encoded by : george$t®
Video
ID : 1
Format : AVC
Format/Info : Advanced Video Codec
Format profile : High@L4.1
Format settings, CABAC : Yes
Format settings, ReFrames : 12 frames
Codec ID : V_MPEG4/ISO/AVC
Duration : 1h 39mn
Bit rate : 7 990 Kbps
Width : 1 280 pixels
Height : 528 pixels
Display aspect ratio : 2.40:1
Frame rate mode : Constant
Frame rate : 23.976 fps
Color space : YUV
Chroma subsampling : 4:2:0
Bit depth : 8 bits
Scan type : Progressive
Bits/(Pixel*Frame) : 0.493
Stream size : 5.42 GiB (82%)
Title : Три плюс два.1963
Writing library : x264 core 146 r2538kMod 121396c
Encoding settings : cabac=1 / ref=12 / deblock=1:-3:-3 / analyse=0x3:0x113 / me=umh / subme=11 / psy=1 / fade_compensate=0.00 / psy_rd=1.00:0.00 / mixed_ref=1 / me_range=32 / chroma_me=1 / trellis=2 / 8x8dct=1 / cqm=0 / deadzone=21,11 / fast_pskip=0 / chroma_qp_offset=-2 / threads=12 / lookahead_threads=3 / sliced_threads=0 / nr=0 / decimate=0 / interlaced=0 / bluray_compat=0 / constrained_intra=0 / fgo=0 / bframes=12 / b_pyramid=2 / b_adapt=2 / b_bias=0 / direct=3 / weightb=1 / open_gop=0 / weightp=2 / keyint=250 / keyint_min=23 / scenecut=40 / intra_refresh=0 / rc_lookahead=40 / rc=2pass / mbtree=0 / bitrate=7990 / ratetol=1.0 / qcomp=0.70 / qpmin=0 / qpmax=32 / qpstep=4 / cplxblur=20.0 / qblur=0.5 / vbv_maxrate=50000 / vbv_bufsize=62500 / nal_hrd=none / filler=0 / ip_ratio=1.15 / pb_ratio=1.20 / aq=1:0.70
Language : Russian
Default : Yes
Forced : No
Color primaries : BT.709
Transfer characteristics : BT.709
Matrix coefficients : BT.709
Color range : Limited
Audio
ID : 2
Format : DTS
Format/Info : Digital Theater Systems
Mode : 16
Format settings, Endianness : Big
Codec ID : A_DTS
Duration : 1h 39mn
Bit rate mode : Constant
Bit rate : 1 509 Kbps
Channel(s) : 6 channels
Channel positions : Front: L C R, Side: L R, LFE
Sampling rate : 48.0 KHz
Bit depth : 24 bits
Compression mode : Lossy
Stream size : 1.05 GiB (16%)
Title : DTS: Core; 24 bit 48 Khz; 5.1 ch 1509 Kbps
Language : Russian
Default : Yes
Forced : No
Menu
00:00:00.000 : ru:00:00:00.000
00:09:49.506 : ru:00:09:49.506
00:20:27.601 : ru:00:20:27.601
00:28:29.374 : ru:00:28:29.374
00:35:02.684 : ru:00:35:02.684
00:41:33.282 : ru:00:41:33.282
00:48:43.546 : ru:00:48:43.546
00:55:29.326 : ru:00:55:29.326
01:01:13.795 : ru:01:01:13.795
01:04:52.764 : ru:01:04:52.764
01:10:00.196 : ru:01:10:00.196
01:16:04.852 : ru:01:16:04.852
01:26:28.683 : ru:01:26:28.683
01:33:06.206 : ru:01:33:06.206

Скриншоты

vs. source
[Профиль] [ЛС]
Кто просматривает тему:

Показать сообщения:    

Текущее время: Сегодня 20:59

Часовой пояс: GMT



Вы не можете начинать темы
Вы не можете отвечать на сообщения
Вы не можете редактировать свои сообщения
Вы не можете удалять свои сообщения
Вы не можете голосовать в опросах
Вы не можете прикреплять файлы к сообщениям
Вы не можете скачивать файлы