Три плюс два (1963) BDRip 1080p | Широкоэкранная версия

 
Автор Сообщение

sergej644 ®

Пол:

Стаж: 4 года 11 месяцев

Сообщений: 6046

Откуда: Soviet Union



Награды: Нет

Торрент-статистика

Создавать темы 22-Июн-2015 22:39

[Цитировать]

--Три плюс два
Информация о фильме
Название: Три плюс два
Год выпуска: 1963
Жанр: Комедия
Продолжительность: 01:39:22
Режиссер: Генрих Оганисян
В ролях: Наталья Кустинская, Наталья Фатеева, Андрей Миронов, Евгений Жариков, Геннадий Нилов
Описание: о пьесе Сергея Михалкова "Дикари". Сценарий Сергей Михалков.
Трое друзей решили пожить "дикарями" на пустынном берегу Черного моря. Но отдыху героев помешали две девушки, которые поставили свой новенький "Запорожец"
рядом с их "Волгой" и попытались создать невыносимые условия для соседей. Однако, вражда их была недолгой...

Файл
Качество: BDRip 1080p
Формат: MKV
Видео кодек: H264
Аудио кодек: DTS, AC3
Видео: MPEG4 Video (H264), 1920x792, 23.976 fps, 11.0 Mbps
Аудио: DTS, 48000 Hz, 6ch, 1536 Kbps
Аудио: Dolby AC3, 48000 Hz, 6ch, 448 Kbps
Сэмпл

MediaInfo:

General
Unique ID : 178138237446474349365034725193736743073 (0x86042D33F1AB584585088BC0E92368A1)
Complete name : F:DVDRip1963.3+2.renta23.mkv
Format : Matroska
Format version : Version 4 / Version 2
File size : 8.98 GiB
Duration : 1h 39mn
Overall bit rate : 12.9 Mbps
Movie name : 1963 Три плюс два / renta23
Encoded date : UTC 2015-06-22 21:01:04
Writing application : mkvmerge v7.9.0 ('Birds') 32bit
Writing library : libebml v1.3.1 + libmatroska v1.4.2
DURATION : 01:39:20.352000000
NUMBER_OF_FRAMES : 186261
NUMBER_OF_BYTES : 333779712
_STATISTICS_WRITING_APP : mkvmerge v7.9.0 ('Birds') 32bit
_STATISTICS_WRITING_DATE_UTC : 2015-06-22 21:01:04
_STATISTICS_TAGS : BPS DURATION NUMBER_OF_FRAMES NUMBER_OF_BYTES
Video
ID : 1
Format : AVC
Format/Info : Advanced Video Codec
Format profile : High@L4.1
Format settings, CABAC : Yes
Format settings, ReFrames : 3 frames
Codec ID : V_MPEG4/ISO/AVC
Duration : 1h 39mn
Bit rate : 11.0 Mbps
Width : 1 920 pixels
Height : 792 pixels
Display aspect ratio : 2.40:1
Frame rate mode : Constant
Frame rate : 23.976 fps
Color space : YUV
Chroma subsampling : 4:2:0
Bit depth : 8 bits
Scan type : Progressive
Bits/(Pixel*Frame) : 0.302
Stream size : 7.44 GiB (83%)
Title : 1963 Три плюс два
Writing library : x264 core 146 r2538 121396c
Encoding settings : cabac=1 / ref=4 / deblock=1:-1:-1 / analyse=0x3:0x113 / me=umh / subme=11 / psy=1 / psy_rd=1.15:0.25 / mixed_ref=1 / me_range=24 / chroma_me=1 / trellis=2 / 8x8dct=1 / cqm=0 / deadzone=21,11 / fast_pskip=0 / chroma_qp_offset=-4 / threads=12 / lookahead_threads=3 / sliced_threads=0 / nr=0 / decimate=0 / interlaced=0 / bluray_compat=0 / constrained_intra=0 / bframes=12 / b_pyramid=1 / b_adapt=2 / b_bias=0 / direct=3 / weightb=1 / open_gop=0 / weightp=2 / keyint=250 / keyint_min=23 / scenecut=40 / intra_refresh=0 / rc_lookahead=50 / rc=2pass / mbtree=1 / bitrate=11000 / ratetol=1.0 / qcomp=0.60 / qpmin=0 / qpmax=69 / qpstep=4 / cplxblur=20.0 / qblur=0.5 / vbv_maxrate=14000 / vbv_bufsize=14000 / nal_hrd=none / filler=0 / ip_ratio=1.40 / aq=1:1.10
Language : Russian
Default : Yes
Forced : No
Audio #1
ID : 2
Format : DTS
Format/Info : Digital Theater Systems
Mode : 16
Format settings, Endianness : Big
Codec ID : A_DTS
Duration : 1h 39mn
Bit rate mode : Constant
Bit rate : 1 509 Kbps
Channel(s) : 6 channels
Channel positions : Front: L C R, Side: L R, LFE
Sampling rate : 48.0 KHz
Bit depth : 24 bits
Compression mode : Lossy
Stream size : 1.05 GiB (12%)
Title : DTS
Language : Russian
Default : Yes
Forced : No
Audio #2
ID : 3
Format : AC-3
Format/Info : Audio Coding 3
Mode extension : CM (complete main)
Format settings, Endianness : Big
Codec ID : A_AC3
Duration : 1h 39mn
Bit rate mode : Constant
Bit rate : 448 Kbps
Channel(s) : 6 channels
Channel positions : Front: L C R, Side: L R, LFE
Sampling rate : 48.0 KHz
Bit depth : 16 bits
Compression mode : Lossy
Stream size : 318 MiB (3%)
Title : AC3
Language : Russian
Default : No
Forced : No
Menu
00:00:00.000 : en:Chapter 01
00:09:49.505 : en:Chapter 02
00:20:27.309 : en:Chapter 03
00:28:29.374 : en:Chapter 04
00:35:02.683 : en:Chapter 05
00:41:33.157 : en:Chapter 06
00:48:43.462 : en:Chapter 07
00:55:28.992 : en:Chapter 08
01:01:13.461 : en:Chapter 09
01:04:52.430 : en:Chapter 10
01:09:59.862 : en:Chapter 11
01:16:04.518 : en:Chapter 12
01:26:29.142 : en:Chapter 13
01:33:06.664 : en:Chapter 14
[Профиль] [ЛС]
Кто просматривает тему:

Показать сообщения:    

Текущее время: Сегодня 01:28

Часовой пояс: GMT



Вы не можете начинать темы
Вы не можете отвечать на сообщения
Вы не можете редактировать свои сообщения
Вы не можете удалять свои сообщения
Вы не можете голосовать в опросах
Вы не можете прикреплять файлы к сообщениям
Вы не можете скачивать файлы