Три плюс два (Генрих Оганисян) [1963, СССР, комедия, HDTV 1080i] [широкоэкранная версия]

 
Автор Сообщение

TorrentFilm ®

Пол:

Стаж: 1 год 11 месяцев

Сообщений: 7741



Награды: Нет

Торрент-статистика

Создавать темы 08-Апр-2015 00:01

[Цитировать]

Три плюс два-Полная широкоэкранная версия Страна: СССР
Студия: Киностудия им. М. Горького, Рижская киностудия
Жанр: комедия
Год выпуска: 1963
Продолжительность: 01:34:57
Перевод: Не требуется
Cубтитры: нет
Оригинальная аудиодорожка: русский
Режиссер: Генрих Оганисян
В ролях: Андрей Миронов, Евгений Жариков, Геннадий Нилов, Наталья Кустинская, Наталья Фатеева
Описание: Трое друзей решили пожить "дикарями" на пустынном берегу Черного моря. Но отдыху героев помешали две девушки, которые поставили свой новенький "Запорожец" рядом с их "Волгой" и попытались создать невыносимые условия для соседей. Однако, вражда их была недолгой...
Доп. информация: Фильм "Три плюс два" был снят в двух версиях - для показа в кинотеатрах и по телевидению. Это широкоэкранная версия фильма, отличающаяся совершенно другим монтажом, некоторыми сценами и наполнением кадра.-SAMPLE-Тип релиза: HDTV 1080i
Контейнер: TS-Видео: MPEG4 (H264) / 1920x1080 (16:9) / 8800kbps / 25.00fps / 0.171 bit/pixel
Аудио #1: Russian / AC3 / 384 Kbps / 48 kHz / 5.1 / 16 bits
Аудио #2: Russian / MPEG Audio Layer-2 / 192 Kbps / 48 kHz / stereo / 16 bits

MediaInfo

General
ID : 10
Complete name : E:\Три плюс два.ts
Format : MPEG-TS
File size : 6.63 GiB
Duration : 1h 34mn
Overall bit rate : 9 993 Kbps
Video
ID : 1902 (0x76E)
Menu ID : 92 (0x5C)
Format : AVC
Format/Info : Advanced Video Codec
Format profile : High@L4.0
Format settings, CABAC : Yes
Format settings, ReFrames : 3 frames
Codec ID : 27
Duration : 1h 34mn
Bit rate : 8 885 Kbps
Width : 1 920 pixels
Height : 1 080 pixels
Display aspect ratio : 16:9
Frame rate : 25.000 fps
Standard : PAL
Color space : YUV
Chroma subsampling : 4:2:0
Bit depth : 8 bits
Scan type : Interlaced
Scan order : Top Field First
Bits/(Pixel*Frame) : 0.171
Stream size : 5.89 GiB (89%)
Color primaries : BT.709-5, BT.1361, IEC 61966-2-4, SMPTE RP177
Transfer characteristics : BT.709-5, BT.1361
Matrix coefficients : BT.709-5, BT.1361, IEC 61966-2-4 709, SMPTE RP177
Audio #1
ID : 2902 (0xB56)
Menu ID : 92 (0x5C)
Format : MPEG Audio
Format version : Version 1
Format profile : Layer 2
Codec ID : 4
Duration : 1h 34mn
Bit rate mode : Constant
Bit rate : 224 Kbps
Channel(s) : 2 channels
Sampling rate : 48.0 KHz
Video delay : 104ms
Stream size : 152 MiB (2%)
Language : std
Language, more info : Clean effects
Audio #2
ID : 3902 (0xF3E)
Menu ID : 92 (0x5C)
Format : AC-3
Format/Info : Audio Coding 3
Mode extension : CM (complete main)
Codec ID : 6
Duration : 1h 34mn
Bit rate mode : Constant
Bit rate : 384 Kbps
Channel(s) : 6 channels
Channel positions : Front: L C R, Side: L R, LFE
Sampling rate : 48.0 KHz
Bit depth : 16 bits
Video delay : 120ms
Stream size : 261 MiB (4%)
Language : std
Language, more info : Clean effects

Скриншоты

[Профиль] [ЛС]
Кто просматривает тему:

Показать сообщения:    

Текущее время: Сегодня 18:01

Часовой пояс: GMT



Вы не можете начинать темы
Вы не можете отвечать на сообщения
Вы не можете редактировать свои сообщения
Вы не можете удалять свои сообщения
Вы не можете голосовать в опросах
Вы не можете прикреплять файлы к сообщениям
Вы не можете скачивать файлы