Три плюс два (Генрих Оганисян) [1963, СССР, Комедия, HDTV 1080i]

 
Автор Сообщение

reversefile ®

Пол:

Стаж: 4 года 5 месяцев

Сообщений: 842

Откуда: ReverseFile.org



Награды: Нет

Торрент-статистика

Создавать темы 13-Авг-2014 18:26

[Цитировать]

Три плюс два / широкоэкранная версия
Страна: СССР
Жанр: Комедия
Год выпуска: 1963
Продолжительность: 01:24:25
Перевод: не требуется
Субтитры: нет
Оригинальная аудиодорожка: русский
Режиссёр: Генрих Оганисян
В ролях: Андрей Миронов, Евгений Жариков, Геннадий Нилов, Наталья Кустинская, Наталья Фатеева
Описание: Трое друзей решили пожить "дикарями" на пустынном берегу Черного моря. Но отдыху героев помешали две девушки, которые поставили свой новенький "Запорожец" рядом с их "Волгой" и попытались создать невыносимые условия для соседей. Однако, вражда их была недолгой...
Раздача группы:
Сэмпл
Качество видео: HDTV 1080i
Формат видео: TS
Видео: MPEG4 (H264) 1920x1080 (16:9), 8498 kbps, 25.00fps 0.164 bit/pixel
Аудио: AC-3, 6 ch, 48,0 КГц, 384 kbps

MediaInfo

G:\КОМЕДИИ\Три плюс два.ts
General #1
ID : 1 (0x1)
Complete name : G:\КОМЕДИИ\Три плюс два.ts
Format : MPEG-TS
File size : 5.51 GiB
Duration : 1h 24mn
Overall bit rate : 9 348 Kbps
Video #1902
ID : 1902 (0x76E)
Menu ID : 1 (0x1)
Format : AVC
Format/Info : Advanced Video Codec
Format profile : High@L4.0
Format settings, CABAC : Yes
Format settings, ReFrames : 3 frames
Codec ID : 27
Duration : 1h 24mn
Bit rate : 8 498 Kbps
Width : 1 920 pixels
Height : 1 080 pixels
Display aspect ratio : 16:9
Frame rate : 25.000 fps
Standard : Component
Color space : YUV
Chroma subsampling : 4:2:0
Bit depth : 8 bits
Scan type : Interlaced
Scan order : Top Field First
Bits/(Pixel*Frame) : 0.164
Stream size : 5.01 GiB (91%)
Color primaries : BT.709-5, BT.1361, IEC 61966-2-4, SMPTE RP177
Transfer characteristics : BT.709-5, BT.1361
Matrix coefficients : BT.709-5, BT.1361, IEC 61966-2-4 709, SMPTE RP177
Audio #3902
ID : 3902 (0xF3E)
Menu ID : 1 (0x1)
Format : AC-3
Format/Info : Audio Coding 3
Mode extension : CM (complete main)
Format settings, Endianness : Big
Codec ID : 6
Duration : 1h 24mn
Bit rate mode : Constant
Bit rate : 384 Kbps
Channel(s) : 6 channels
Channel positions : Front: L C R, Side: L R, LFE
Sampling rate : 48.0 KHz
Bit depth : 16 bits
Compression mode : Lossy
Stream size : 232 MiB (4%)
Language : Russian
Text #33-888
ID : 33 (0x21)-888
Menu ID : 1 (0x1)
Format : Teletext Subtitle
Language : Russian

Скриншоты

[Профиль] [ЛС]
Кто просматривает тему:

Показать сообщения:    

Текущее время: Сегодня 08:04

Часовой пояс: GMT



Вы не можете начинать темы
Вы не можете отвечать на сообщения
Вы не можете редактировать свои сообщения
Вы не можете удалять свои сообщения
Вы не можете голосовать в опросах
Вы не можете прикреплять файлы к сообщениям
Вы не можете скачивать файлы