Три орешка для Золушки / Tri orísky pro Popelku (Вацлав Ворличек /Václav Vorlícek)[1973, фэнтези, драма, мелодрама, BDRip] 720p | P

 
Автор Сообщение

sergej644 ®

Пол:

Стаж: 4 года 11 месяцев

Сообщений: 6035

Откуда: Soviet Union



Награды: Нет

Торрент-статистика

Создавать темы 29-Май-2015 13:22

[Цитировать]

--Три орешка для Золушки / Tri orísky pro Popelku / Three Wishes for Cinderella

Информация о фильме
Название: Три орешка для Золушки
Оригинальное название: Tri orísky pro Popelku / Three Wishes for Cinderella
Год выхода: 1973
Жанр: фэнтези, драма, мелодрама, приключения, семейный
Режиссер: Вацлав Ворличек /Václav Vorlícek/
В ролях: Либуше Шафранкова /Libuse Safránková/, Павел Травничек /Pavel Trávnícek/, Карола Браунбок /Carola Braunbock/, Рольф Хоппе /Rolf Hoppe/, Карин Леш /Karin Lesch/, Дана Главачова /Dana Hlavácová/, Ян Либичек /Jan Libícek/, Витезслав Яндак /Vítezslav Jandák/, Ярослав Дрбоглав /Jaroslav Drbohlav/, Владимир Меншик /Vladimír Mensík/...
О фильме:
Мачеха Золушки всеми силами хочет выдать свою глупую и злую родную дочь замуж за принца. Но тому совсем не хочется жениться, он ссорится с отцом и собирается покинуть дворец, но… в последний момент он влюбляется в очаровательную незнакомку в маске, которая быстро исчезает. Принц и не догадывается, что эта прекрасная девушка, ловкий стрелок, которого он встретил в лесу и озорная девчонка — одно и то же лицо. Все эти превращения оказались возможными благодаря волшебным орешкам, в одном из которых находился и свадебный подарок для Золушки.

Страна: Чехословакия, Германия (ГДР)
Продолжительность: 01:22:53
Перевод: Русский профессиональный, многоголосый
Файл
Кодек: MKV, H.264
Качество: BDRip 720p (Source: Blu-ray Disc)
Видео: 7211 kbps; 0.313 bit/pixel; 1280 x 720; 16:9; 25 fps
Звук: AC3 Dolby Digital; 192.00 kbps, 2 Ch - MVO
Субтитры: Русские, Английские.
Размер: 4.37 GB
SAMPLE / скачать с Яндекс Диск

MediaInfo

General
Complete name : Tri.Oreshka.Dlya.Zolushki.1973.RUS.BDRip.720p.h264.AC3.-HQ-ViDEO.mkv
Format : Matroska
File size : 4.37 GiB
Duration : 1h 22mn
Overall bit rate : 7 553 Kbps
Movie name : Tri orísky pro Popelku / Three Wishes for Cinderella (1973)
Encoded date : UTC 2010-12-30 12:50:46
Writing application : mkvmerge v3.3.0 ('Language') built on Mar 24 2010 14:59:24
Writing library : libebml v0.8.0 + libmatroska v0.9.0
Video
ID : 1
Format : AVC
Format/Info : Advanced Video Codec
Format profile : High@L4.1
Format settings, CABAC : Yes
Format settings, ReFrames : 6 frames
Muxing mode : Container profile=Unknown@4.1
Codec ID : V_MPEG4/ISO/AVC
Duration : 1h 22mn
Bit rate : 7 211 Kbps
Width : 1 280 pixels
Height : 720 pixels
Display aspect ratio : 16:9
Frame rate : 25.000 fps
Resolution : 8 bits
Colorimetry : 4:2:0
Scan type : Progressive
Bits/(Pixel*Frame) : 0.313
Stream size : 4.18 GiB (95%)
Title : Encoded by GYN
Audio
ID : 2
Format : AC-3
Format/Info : Audio Coding 3
Format profile : Dolby Digital
Codec ID : A_AC3
Duration : 1h 22mn
Bit rate mode : Constant
Bit rate : 192 Kbps
Channel(s) : 2 channels
Channel positions : L R
Sampling rate : 48.0 KHz
Stream size : 114 MiB (3%)
Title : MVO
Language : Russian
Text #1
ID : 3
Format : UTF-8
Codec ID : S_TEXT/UTF8
Codec ID/Info : UTF-8 Plain Text
Language : Russian
Text #2
ID : 4
Format : UTF-8
Codec ID : S_TEXT/UTF8
Codec ID/Info : UTF-8 Plain Text
Language : English

Скриншоты


[Профиль] [ЛС]

Создавать темы 06-Авг-2015 22:33 (спустя 2 месяца 8 дней)

Топик был перенесен из форума Фильмы до 2014 года в форум Классика зарубежного кино
sergej644
 
Кто просматривает тему:

Показать сообщения:    

Текущее время: Сегодня 02:46

Часовой пояс: GMT



Вы не можете начинать темы
Вы не можете отвечать на сообщения
Вы не можете редактировать свои сообщения
Вы не можете удалять свои сообщения
Вы не можете голосовать в опросах
Вы не можете прикреплять файлы к сообщениям
Вы не можете скачивать файлы