Три мушкетера / Les Trois Mousquetaires (1961) HDTVRip 720p | D, P

 
Автор Сообщение

sergej644 ®

Пол:

Стаж: 4 года 11 месяцев

Сообщений: 6046

Откуда: Soviet Union



Награды: Нет

Торрент-статистика

Создавать темы 08-Фев-2015 19:04

[Цитировать]

Информация о фильме
Название: Три мушкетера
Оригинальное название: Les Trois Mousquetaires
Год выхода: 1961
Жанр: Приключения
Режиссер: Бернар Бордери
В ролях: Жерар Баррэ, Жорж Декриер, Бернар Воринже, Жак Тожа, Милен Демонжо, Жан Карме, Ги Делорм, Робер Берри, Анн Тоньетти, Ги Трежан ...
О фильме: Итак, молодой гасконец Д`Артаньян прибывает в столицу на дрянной лошаденке непонятного цвета. Казалось, что может ждать деревенщину в Париже, кроме неприятностей?
А вот что: служба в мушкетерском полку, любовь прелестнейшей из придворных дам, знакомство с королевой Анной Австрийской и приключения, приключения, приключения…
Фильм снят по мотивам романа Александра Дюма отца «Три мушкетёра» (Les trois mousquetaires, 1844). По мнению многих зрителей и критиков — лучшая экранизация великой книги.
Весёлый, жизнерадостный, увлекательный фильм с великолепной режиссурой, диалогами, бравой и лиричной музыкой Поля Мизраки. Подбор актёров — выше всех похвал (изумительная по качеству и вкусу отечественная «озвучка»), отменные фехтовальные поединки, потасовки и трюки, тонкий юмор и ненавязчивый флер эротизма, привнесенного красивыми французскими актрисами. В картине, по отношению к роману, возросла роль графа Рошфора и появился персонаж, который только упоминается у Александра Дюма — мадам де Ланнуа…
Абсолютный лидер советского проката 1962—1963 годов. Оставался популярным и в последующие годы. При повторном выпуске вновь побил все рекорды.
1 серия - «Подвески королевы». 2 серия - «Месть миледи»

Страна: Франция, Италия
Студия: Borderie, Fono Roma, Le Film d'Art, Les Films Modernes (I)
Продолжительность: 01:39:25 + 01:34:56
Перевод 1: Профессиональный (дублированный) - Советский дубляж
Перевод 2: Профессиональный (многоголосый закадровый) - Студия "Инис" по заказу "Союз-Видео"
Перевод 3: Профессиональный (многоголосый закадровый) - ТВЦ
Файл
Кодек: H264
Качество: HDTVRip 720p
Видео: MPEG4 Video (H264), 1280x520, 59.94fps, 5000 Kbps
Звук: Dolby AC3, 48000 Hz, 2ch, 192 kbps - Советский дубляж
Звук: Dolby AC3, 48000 Hz, 2ch, 192 kbps - Многоголосый - Студия "Инис" по заказу "Союз-Видео"
Звук: Dolby AC3, 48000 Hz, 2ch, 192 kbps - Многоголосый - ТВЦ

MediaInfo:

General
Unique ID : 252572880716162512055868487707831377662 (0xBE03C4750E761914AF1E755AFD911EFE)
Complete name : F:Torrent 21961.Три.мушкетёра.renta231961 Три мушкетёра 1.mkv
Format : Matroska
Format version : Version 4 / Version 2
File size : 3.88 GiB
Duration : 1h 39mn
Overall bit rate : 5 581 Kbps
Encoded date : UTC 2014-09-22 08:15:47
Writing application : mkvmerge v7.1.0 ('Good Love') 32bit built on Jul 27 2014 12:59:18
Writing library : libebml v1.3.0 + libmatroska v1.4.1
DURATION : 01:39:24.032000000
NUMBER_OF_FRAMES : 186376
NUMBER_OF_BYTES : 143136768
_STATISTICS_WRITING_APP : mkvmerge v7.1.0 ('Good Love') 32bit built on Jul 27 2014 12:59:18
_STATISTICS_WRITING_DATE_UTC : 2014-09-22 08:15:47
_STATISTICS_TAGS : BPS DURATION NUMBER_OF_FRAMES NUMBER_OF_BYTES
Video
ID : 1
Format : AVC
Format/Info : Advanced Video Codec
Format profile : High@L4.1
Format settings, CABAC : Yes
Format settings, ReFrames : 7 frames
Codec ID : V_MPEG4/ISO/AVC
Bit rate : 5 000 Kbps
Width : 1 280 pixels
Height : 520 pixels
Display aspect ratio : 2.462
Frame rate mode : Variable
Original frame rate : 59.940 fps
Color space : YUV
Chroma subsampling : 4:2:0
Bit depth : 8 bits
Scan type : Progressive
Bits/(Pixel*Frame) : 0.125
Title : Три мушкетера / Les trois mousquetaires 1961 / renta23
Writing library : x264 core 125 r2208 d9d2288
Encoding settings : cabac=1 / ref=8 / deblock=1:-1:-1 / analyse=0x3:0x133 / me=umh / subme=11 / psy=1 / psy_rd=1.15:0.15 / mixed_ref=1 / me_range=32 / chroma_me=1 / trellis=2 / 8x8dct=1 / cqm=0 / deadzone=21,11 / fast_pskip=0 / chroma_qp_offset=-3 / threads=12 / lookahead_threads=2 / sliced_threads=0 / nr=0 / decimate=1 / interlaced=0 / bluray_compat=0 / constrained_intra=0 / bframes=16 / b_pyramid=1 / b_adapt=2 / b_bias=0 / direct=3 / weightb=1 / open_gop=0 / weightp=2 / keyint=250 / keyint_min=25 / scenecut=40 / intra_refresh=0 / rc_lookahead=50 / rc=2pass / mbtree=1 / bitrate=5000 / ratetol=1.0 / qcomp=0.60 / qpmin=0 / qpmax=69 / qpstep=4 / cplxblur=20.0 / qblur=0.5 / ip_ratio=1.40 / aq=2:1.00
Language : French
Default : Yes
Forced : No
Audio #1
ID : 2
Format : AC-3
Format/Info : Audio Coding 3
Mode extension : CM (complete main)
Format settings, Endianness : Big
Codec ID : A_AC3
Duration : 1h 39mn
Bit rate mode : Constant
Bit rate : 192 Kbps
Channel(s) : 2 channels
Channel positions : Front: L R
Sampling rate : 48.0 KHz
Bit depth : 16 bits
Compression mode : Lossy
Stream size : 137 MiB (3%)
Title : Советский дубляж
Language : Russian
Default : Yes
Forced : No
Audio #2
ID : 3
Format : AC-3
Format/Info : Audio Coding 3
Mode extension : CM (complete main)
Format settings, Endianness : Big
Codec ID : A_AC3
Duration : 1h 39mn
Bit rate mode : Constant
Bit rate : 192 Kbps
Channel(s) : 2 channels
Channel positions : Front: L R
Sampling rate : 48.0 KHz
Bit depth : 16 bits
Compression mode : Lossy
Stream size : 137 MiB (3%)
Title : Многоголосый - Студия "Инис" по заказу "Союз-Видео"
Language : Russian
Default : No
Forced : No
Audio #3
ID : 4
Format : AC-3
Format/Info : Audio Coding 3
Mode extension : CM (complete main)
Format settings, Endianness : Big
Codec ID : A_AC3
Duration : 1h 39mn
Bit rate mode : Constant
Bit rate : 192 Kbps
Channel(s) : 2 channels
Channel positions : Front: L R
Sampling rate : 48.0 KHz
Bit depth : 16 bits
Compression mode : Lossy
Stream size : 137 MiB (3%)
Title : Многоголосый - ТВЦ
Language : Russian
Default : No
Forced : No

Скриншоты

-
[Профиль] [ЛС]
Кто просматривает тему:

Показать сообщения:    

Текущее время: Сегодня 14:58

Часовой пояс: GMT



Вы не можете начинать темы
Вы не можете отвечать на сообщения
Вы не можете редактировать свои сообщения
Вы не можете удалять свои сообщения
Вы не можете голосовать в опросах
Вы не можете прикреплять файлы к сообщениям
Вы не можете скачивать файлы