Три минуты. 21:37 / Trzy minuty. 21:37 (Мачей Шлешицкий / Maciej Slesicki) [2010, Польша, драма, DVDRip] VO + Sub Rus (Professor) + Original Pol

 
Автор Сообщение

TorrentFilm ®

Пол:

Стаж: 1 год 11 месяцев

Сообщений: 7741



Награды: Нет

Торрент-статистика

Создавать темы 08-Фев-2015 00:00

[Цитировать]

Три минуты. 21:37 / Trzy minuty. 21:37
Страна: Польша
Жанр: драма
Год выпуска: 2010
Продолжительность: 02:03:02-Перевод: одноголосый закадровый
Cубтитры: русские Professor
Оригинальная аудиодорожка: польский-Режиссер: Мачей Шлешицкий / Maciej Slesicki-В ролях: Кшиштоф Строиньский, Богуслав Линда, Лидия Садовая, Павел Круликовский, Марчин Валевский, Модест Ручиньский, Агнешка Гроховская, Томаш Каролак, Славомир Ожеховский, Валдемар Блашчик-Описание: Отправной точкой в фильме стало событие, которое произошло в Польше 9 апреля 2005 года, через неделю после смерти Папы Иоанна Павла II, когда поляки в знак солидарности выключили на несколько минут свет в своих домах. Фильм рассказывает историю нескольких человек, для которых время 21:37 стало переломом в их жизни: сердце кинорежиссера (Кшиштоф Строиньский) разбито после ухода его последней пассии. На ситуацию он реагирует типичным способом - начинает по-крупному пить, что делает режиссера практически недееспособным. Продюсер (Славомир Ожеховский) хочет, чтобы режиссер повторил свой давний успех и снял еще один фильм, в который уже приглашена известная английская актриса. Поскольку она, согласно договору, никогда не контактирует с режиссерами через переводчиков, продюсер нанимает учительницу английского языка (Агнешка Гроховская). Несмотря на серьезную разницу в возрасте, режиссер влюбляется в нее и у них начинается роман. Случайно учительнице приходится познакомиться с дочерью режиссера (Лидия Садовая), которая в свои 20 нигде не учится и успела залететь от пожилого художника (Богуслав Линда). Когда режиссер идет на встречу с отцом своего будущего внука, история делает резкий и неожиданный поворот...-Доп. информация:
КиноПоиск-Приз на Польском кинофестивале в Гдыне (2010) за лучшую роль второго плана (Агнешка Гроховская) и лучший дебют (Марчин Валевский).-Сэмпл: https://www.sendspace.com/file/y3we66-Качество видео: DVDRip
Формат видео: AVI-Видео: XviD, 720х384, 1.85, 25 fps, 2050 Kbs
Аудио1: AC-3, 44.1 KHz, 448 Kbps, 6 channels, русский
Аудио2: AC-3, 48.0 KHz, 448 Kbps, 6 channels, польский
Формат субтитров: softsub (SRT)

MediaInfo

General
Complete name : Trzy.Minuty.2137.2010.RU.HQDVDRip.XviD.AC3.avi
Format : AVI
Format/Info : Audio Video Interleave
Format profile : OpenDML
File size : 2.55 GiB
Duration : 2h 3mn
Overall bit rate : 2 963 Kbps
Writing application : VirtualDubMod 1.5.10.3 | www.virtualdub-fr.org || (build 2550/release)
Writing library : VirtualDubMod build 2550/release
Video
ID : 0
Format : MPEG-4 Visual
Format profile : Advanced Simple@L5
Format settings, BVOP : 2
Format settings, QPel : No
Format settings, GMC : No warppoints
Format settings, Matrix : Default (H.263)
Codec ID : XVID
Codec ID/Hint : XviD
Duration : 2h 3mn
Bit rate : 2 050 Kbps
Width : 720 pixels
Height : 384 pixels
Display aspect ratio : 1.85:1
Frame rate : 25.000 fps
Color space : YUV
Chroma subsampling : 4:2:0
Bit depth : 8 bits
Scan type : Progressive
Compression mode : Lossy
Bits/(Pixel*Frame) : 0.297
Stream size : 1.76 GiB (69%)
Writing library : XviD 1.2.1 (UTC 2008-12-04)
Audio #1
ID : 1
Format : AC-3
Format/Info : Audio Coding 3
Mode extension : CM (complete main)
Format settings, Endianness : Big
Codec ID : 2000
Duration : 2h 3mn
Bit rate mode : Constant
Bit rate : 448 Kbps
Channel(s) : 6 channels
Channel positions : Front: L C R, Side: L R, LFE
Sampling rate : 44.1 KHz
Bit depth : 16 bits
Compression mode : Lossy
Stream size : 394 MiB (15%)
Alignment : Split accross interleaves
Interleave, duration : 40 ms (1.00 video frame)
Interleave, preload duration : 500 ms
Audio #2
ID : 2
Format : AC-3
Format/Info : Audio Coding 3
Mode extension : CM (complete main)
Format settings, Endianness : Big
Codec ID : 2000
Duration : 2h 3mn
Bit rate mode : Constant
Bit rate : 448 Kbps
Channel(s) : 6 channels
Channel positions : Front: L C R, Side: L R, LFE
Sampling rate : 48.0 KHz
Bit depth : 16 bits
Compression mode : Lossy
Stream size : 394 MiB (15%)
Alignment : Split accross interleaves
Interleave, duration : 40 ms (1.00 video frame)
Interleave, preload duration : 500 ms

Скриншот c названием фильма

Пример субтитров

328
00:42:27,758 --> 00:42:29,249
Художник
329
00:42:32,373 --> 00:42:34,301
Это все, что ты
можешь приготовить?
330
00:42:34,421 --> 00:42:34,909
Да
331
00:42:36,338 --> 00:42:39,189
У меня был плюшевый медведь,
но я оставил его в винном
332
00:42:39,567 --> 00:42:41,214
Никогда с ними не играла
333
00:42:41,334 --> 00:42:43,019
Где твою мать носит?
334
00:42:43,139 --> 00:42:44,693
Ушла в кругосветное!
335
00:42:48,342 --> 00:42:50,025
Вы можете не курить тут?
336
00:42:50,145 --> 00:42:53,129
С тех пор как бросил сам,
не выношу этот запах
337
00:42:58,074 --> 00:42:59,705
И что вы собиратесь
с ней делать?
338
00:42:59,825 --> 00:43:01,933
Ваша дочь родит мне ребенка
339
00:43:02,053 --> 00:43:04,335
- Вы седой
- Папа тоже
340
00:43:04,455 --> 00:43:05,804
Совсем
341
00:43:05,924 --> 00:43:08,560
Сверстниц вокруг не оказалось?
342
00:43:09,304 --> 00:43:11,389
Ладно, нам подраться что-ли,
тогда тебе полегчает?
343
00:43:11,752 --> 00:43:14,172
Я бы убил тебя, говнюк,
одной левой
344
00:43:16,283 --> 00:43:17,349
А ты лучше что-ли?
345
00:43:17,611 --> 00:43:19,408
Но я не делал ребенка
другому ребенку
346
00:43:19,771 --> 00:43:22,124
Она не сказала, что
перестала пить таблетки
347
00:43:23,436 --> 00:43:25,532
- Ягненочек...
- Любимая...
348
00:43:29,946 --> 00:43:30,924
Ягненочек?
[Профиль] [ЛС]

Создавать темы 06-Авг-2015 22:47 (спустя 5 месяцев 26 дней)

Топик был перенесен из форума Фильмы до 2014 года в форум Фильмы до 2012 года
sergej644
 

Создавать темы 12-Июн-2016 07:54 (спустя 1 год 4 месяца)

Топик был перенесен из форума Фильмы 2011 года в форум Фильмы 2010 года
Russian Mafia
 
Кто просматривает тему:

Показать сообщения:    

Текущее время: Сегодня 05:01

Часовой пояс: GMT



Вы не можете начинать темы
Вы не можете отвечать на сообщения
Вы не можете редактировать свои сообщения
Вы не можете удалять свои сообщения
Вы не можете голосовать в опросах
Вы не можете прикреплять файлы к сообщениям
Вы не можете скачивать файлы