Три икса / xXx (2002-2005) BDRip 720p | 60 fps | Дилогия

 
Автор Сообщение

sergej644 ®

Пол:

Стаж: 4 года 11 месяцев

Сообщений: 6040

Откуда: Soviet Union



Награды: Нет

Торрент-статистика

Создавать темы 31-Янв-2015 00:48

[Цитировать]

Три икса / xXx (2002-2005) BDRip 720p | 60 fps | Дилогия-Три икса / xXx
Год выпуска: 2002
Жанр: Боевик, Триллер
Производство: США
Описание фильма:
Ксандер Кэйдж — спортсмен-экстремал. Этот жестокий парень может сделать, то, что не в силах выполнить другие люди. Именно поэтому он привлекает к себе внимание Управления национальной безопасности. Оснащенный самой современной шпионской техникой и оружием, Кэйдж должен просочится в русские криминальные круги, находящиеся в Праге. Ничто не может помешать этому шпиону нового поколения ХХХ выполнить свою миссию, и никто не способен отвлечь его от задания. Никто, кроме таинственной девушки Елены…
Режиссер: Роб Коэн
Актеры: Вин Дизель, Азия Ардженто, Мартон Чокаш, Сэмюэл Л. Джексон, Майкл Руф, Рихи Мюллер, Вернер Даен, Петр Якл Ян, Павел Филипенски, Том Эверетт
Продолжительность: 02:04:08
Качество видео: BDRip
Перевод: Дублированный
Язык субтитров: Rus (полные), Eng (полные)
Вид субтитров: Вшитые

Видеокодек: MPEG-4 AVC/H.264
Битрейт видео: ~6005 kb/s
Размер кадра: 1280*528
Аудио 1 Русский: AC3 5.1, 640 kb/s, Дубляж BD CEE
Аудио 2 Английский: AC3 5.1, 640 kb/s
Сэмпл: Ссылка
Автор рипа: Tiberiumsun69

Внимание!

Перед скачиванием обязательно проверьте Сэмпл на своем оборудовании.

Дополнительная информация

Оптимальные настройки http://www.svp-team.com/wiki/Аппаратные_декодеры
В 2,5 раза больше кадров!
В 2,5 раза плавнее! (59,94 fps)
Приятного просмотра. =)

MI

Общее
Уникальный идентификатор : 177943999302473494919263056745639925263 (0x85DEC485E4F38E0983676F66D15F560F)
Полное имя : A:720p 60fpsТри Икса 720p 60fpsТри икса 1 720p 60fps.mkv
Формат : Matroska
Версия формата : Version 4 / Version 2
Размер файла : 6,45 Гбайт
Продолжительность : 2 ч. 4 м.
Общий поток : 7433 Кбит/сек
Дата кодирования : UTC 2014-07-25 12:54:04
Программа кодирования : mkvmerge v6.9.1 ('Blue Panther') 64bit built on Apr 18 2014 18:23:38
Библиотека кодирования : libebml v1.3.0 + libmatroska v1.4.1
Видео
Идентификатор : 1
Формат : AVC
Формат/Информация : Advanced Video Codec
Профиль формата : High@L4.1
Параметр CABAC формата : Да
Параметр ReFrames формата : 9 кадров
Идентификатор кодека : V_MPEG4/ISO/AVC
Продолжительность : 2 ч. 4 м.
Битрейт : 6005 Кбит/сек
Ширина : 1280 пикселей
Высота : 528 пикселей
Соотношение сторон : 2,40:1
Режим частоты кадров : Постоянный
Частота кадров : 59,880 кадров/сек
Частота кадров в оригинале : 59,940 кадров/сек
Цветовое пространство : YUV
Субдискретизация насыщенности : 4:2:0
Битовая глубина : 8 бит
Тип развёртки : Прогрессивная
Бит/(Пиксели*Кадры) : 0.148
Размер потока : 5,21 Гбайт (81%)
Библиотека кодирования : x264 core 130 r2273 b3065e6
Настройки программы : cabac=1 / ref=9 / deblock=1:-1:-1 / analyse=0x3:0 / me=umh / subme=9 / psy=1 / psy_rd=1.00:0.10 / mixed_ref=1 / me_range=42 / chroma_me=0 / trellis=2 / 8x8dct=1 / cqm=0 / deadzone=21,11 / fast_pskip=0 / chroma_qp_offset=-3 / threads=12 / lookahead_threads=1 / sliced_threads=0 / nr=0 / decimate=0 / interlaced=0 / bluray_compat=0 / constrained_intra=0 / bframes=6 / b_pyramid=2 / b_adapt=2 / b_bias=0 / direct=1 / weightb=1 / open_gop=0 / weightp=2 / keyint=594 / keyint_min=59 / scenecut=40 / intra_refresh=0 / rc=crf / mbtree=0 / crf=16.0 / qcomp=0.60 / qpmin=0 / qpmax=69 / qpstep=4 / ip_ratio=1.40 / pb_ratio=1.30 / aq=0
Язык : English
Default : Да
Forced : Нет
Аудио #1
Идентификатор : 2
Формат : AC-3
Формат/Информация : Audio Coding 3
Расширение режима : CM (complete main)
Параметр Endianness формата : Big
Идентификатор кодека : A_AC3
Продолжительность : 2 ч. 4 м.
Вид битрейта : Постоянный
Битрейт : 640 Кбит/сек
Каналы : 6 каналов
Расположение каналов : Front: L C R, Side: L R, LFE
Частота : 48,0 КГц
Битовая глубина : 16 бит
Метод сжатия : С потерями
Размер потока : 568 Мбайт (9%)
Заголовок : Dub
Язык : Russian
Default : Да
Forced : Нет
Аудио #2
Идентификатор : 3
Формат : AC-3
Формат/Информация : Audio Coding 3
Расширение режима : CM (complete main)
Параметр Endianness формата : Big
Идентификатор кодека : A_AC3
Продолжительность : 2 ч. 4 м.
Вид битрейта : Постоянный
Битрейт : 640 Кбит/сек
Каналы : 6 каналов
Расположение каналов : Front: L C R, Side: L R, LFE
Частота : 48,0 КГц
Битовая глубина : 16 бит
Метод сжатия : С потерями
Размер потока : 568 Мбайт (9%)
Заголовок : Original
Язык : English
Default : Нет
Forced : Нет
Текст #1
Идентификатор : 4
Формат : UTF-8
Идентификатор кодека : S_TEXT/UTF8
Идентификатор кодека/Информация : UTF-8 Plain Text
Заголовок : Full
Язык : Russian
Default : Нет
Forced : Нет
Текст #2
Идентификатор : 5
Формат : UTF-8
Идентификатор кодека : S_TEXT/UTF8
Идентификатор кодека/Информация : UTF-8 Plain Text
Заголовок : Full
Язык : English
Default : Нет
Forced : Нет
Меню
00:00:00.000 : en:Chapter 1
00:03:41.763 : en:Chapter 2
00:05:40.423 : en:Chapter 3
00:10:05.438 : en:Chapter 4
00:12:29.415 : en:Chapter 5
00:19:22.370 : en:Chapter 6
00:21:51.810 : en:Chapter 7
00:23:59.396 : en:Chapter 8
00:27:51.044 : en:Chapter 9
00:32:27.779 : en:Chapter 10
00:34:19.391 : en:Chapter 11
00:42:18.828 : en:Chapter 12
00:45:49.163 : en:Chapter 13
00:50:25.648 : en:Chapter 14
00:57:10.385 : en:Chapter 15
01:01:16.298 : en:Chapter 16
01:04:33.828 : en:Chapter 17
01:12:01.192 : en:Chapter 18
01:14:50.236 : en:Chapter 19
01:17:43.075 : en:Chapter 20
01:20:59.521 : en:Chapter 21
01:26:36.108 : en:Chapter 22
01:32:44.559 : en:Chapter 23
01:38:05.463 : en:Chapter 24
01:39:01.227 : en:Chapter 25
01:44:08.951 : en:Chapter 26
01:45:57.017 : en:Chapter 27
01:49:40.616 : en:Chapter 28
Скриншоты:
-Три икса 2: Новый уровень / xXx: State of the Union
Год выпуска: 2005
Жанр: Боевик, Триллер
Производство: США
Описание фильма:
Америка снова в опасности, и на сей раз беда пришла откуда не ждали: удар по демократии был нанесен изнутри! Группа высокопоставленных заговорщиков в белом доме поднимает мятеж с целью захвата власти. Спецслужбы бессильны — бунтовщики разгромили Агентство Национальной Безопасности (АНБ).
Страна на грани хаоса и террора, но у чудом выжившего офицера АНБ Огастеса Гиббонса остается последний козырь, способный спасти положение. Это Дариус Стоун, крутой и хладнокровный суперагент XXI века, отобранный по сверхсекретной программе «Три Икса». Оставляя после себя смерть и разрушения, этот человек-армия вступает в битву, которая решит судьбу Америки и всего мира…
Режиссер: Ли Тамахори
Актеры: Уиллем Дефо, Сэмюэл Л. Джексон, Айс Кьюб, Скотт Спидман, Иксзибит, Питер Штраусс, Майкл Руф, Санни Мабри, Нона Гэй, Джон Дж. Коннолли
Продолжительность: 01:40:58
Качество видео: BDRip
Перевод: Дублированный
Язык субтитров: Rus (полные), Eng (полные)
Вид субтитров: Вшитые

Видеокодек: MPEG-4 AVC/H.264
Битрейт видео: ~6537 kb/s
Размер кадра: 1280*536
Аудио 1 Русский: AC3 5.1, 448 kb/s, Дубляж BD CEE
Аудио 2 Английский: AC3 5.1, 640 kb/s
Сэмпл: Ссылка
Автор рипа: Tiberiumsun69

MI

Общее
Уникальный идентификатор : 176545772399702792059228030970700544356 (0x84D17A9D40318FEA85314CC61770B964)
Полное имя : A:720p 60fpsТри Икса 720p 60fpsТри икса 2 720p 60fps.mkv
Формат : Matroska
Версия формата : Version 4 / Version 2
Размер файла : 5,49 Гбайт
Продолжительность : 1 ч. 40 м.
Общий поток : 7780 Кбит/сек
Дата кодирования : UTC 2014-07-26 00:20:23
Программа кодирования : mkvmerge v6.9.1 ('Blue Panther') 64bit built on Apr 18 2014 18:23:38
Библиотека кодирования : libebml v1.3.0 + libmatroska v1.4.1
Видео
Идентификатор : 1
Формат : AVC
Формат/Информация : Advanced Video Codec
Профиль формата : High@L4.1
Параметр CABAC формата : Да
Параметр ReFrames формата : 9 кадров
Идентификатор кодека : V_MPEG4/ISO/AVC
Продолжительность : 1 ч. 40 м.
Битрейт : 6537 Кбит/сек
Ширина : 1280 пикселей
Высота : 536 пикселей
Соотношение сторон : 2,40:1
Режим частоты кадров : Постоянный
Частота кадров : 59,880 кадров/сек
Частота кадров в оригинале : 59,940 кадров/сек
Цветовое пространство : YUV
Субдискретизация насыщенности : 4:2:0
Битовая глубина : 8 бит
Тип развёртки : Прогрессивная
Бит/(Пиксели*Кадры) : 0.159
Размер потока : 4,61 Гбайт (84%)
Библиотека кодирования : x264 core 130 r2273 b3065e6
Настройки программы : cabac=1 / ref=9 / deblock=1:-1:-1 / analyse=0x3:0 / me=umh / subme=9 / psy=1 / psy_rd=1.00:0.10 / mixed_ref=1 / me_range=42 / chroma_me=0 / trellis=2 / 8x8dct=1 / cqm=0 / deadzone=21,11 / fast_pskip=0 / chroma_qp_offset=-3 / threads=12 / lookahead_threads=1 / sliced_threads=0 / nr=0 / decimate=0 / interlaced=0 / bluray_compat=0 / constrained_intra=0 / bframes=6 / b_pyramid=2 / b_adapt=2 / b_bias=0 / direct=1 / weightb=1 / open_gop=0 / weightp=2 / keyint=594 / keyint_min=59 / scenecut=40 / intra_refresh=0 / rc=crf / mbtree=0 / crf=16.0 / qcomp=0.60 / qpmin=0 / qpmax=69 / qpstep=4 / ip_ratio=1.40 / pb_ratio=1.30 / aq=0
Язык : English
Default : Да
Forced : Нет
Аудио #1
Идентификатор : 2
Формат : AC-3
Формат/Информация : Audio Coding 3
Расширение режима : CM (complete main)
Параметр Endianness формата : Big
Идентификатор кодека : A_AC3
Продолжительность : 1 ч. 40 м.
Вид битрейта : Постоянный
Битрейт : 448 Кбит/сек
Каналы : 6 каналов
Расположение каналов : Front: L C R, Side: L R, LFE
Частота : 48,0 КГц
Битовая глубина : 16 бит
Метод сжатия : С потерями
Размер потока : 324 Мбайт (6%)
Заголовок : Dub
Язык : Russian
Default : Да
Forced : Нет
Аудио #2
Идентификатор : 3
Формат : AC-3
Формат/Информация : Audio Coding 3
Расширение режима : CM (complete main)
Параметр Endianness формата : Big
Идентификатор кодека : A_AC3
Продолжительность : 1 ч. 40 м.
Вид битрейта : Постоянный
Битрейт : 640 Кбит/сек
Каналы : 6 каналов
Расположение каналов : Front: L C R, Side: L R, LFE
Частота : 48,0 КГц
Битовая глубина : 16 бит
Метод сжатия : С потерями
Размер потока : 462 Мбайт (8%)
Заголовок : Original
Язык : English
Default : Нет
Forced : Нет
Текст #1
Идентификатор : 4
Формат : UTF-8
Идентификатор кодека : S_TEXT/UTF8
Идентификатор кодека/Информация : UTF-8 Plain Text
Заголовок : Full
Язык : Russian
Default : Нет
Forced : Нет
Текст #2
Идентификатор : 5
Формат : UTF-8
Идентификатор кодека : S_TEXT/UTF8
Идентификатор кодека/Информация : UTF-8 Plain Text
Заголовок : Full
Язык : English
Default : Нет
Forced : Нет
Меню
00:00:00.000 : en:Chapter 1
00:06:28.554 : en:Chapter 2
00:13:34.522 : en:Chapter 3
00:20:37.110 : en:Chapter 4
00:25:34.032 : en:Chapter 5
00:31:07.699 : en:Chapter 6
00:37:02.553 : en:Chapter 7
00:40:11.659 : en:Chapter 8
00:47:22.256 : en:Chapter 9
00:53:31.666 : en:Chapter 10
01:01:04.786 : en:Chapter 11
01:04:46.507 : en:Chapter 12
01:10:44.114 : en:Chapter 13
01:18:12.771 : en:Chapter 14
01:23:11.444 : en:Chapter 15
01:28:15.790 : en:Chapter 16
Скриншоты:
[Профиль] [ЛС]
Кто просматривает тему:

Показать сообщения:    

Текущее время: Сегодня 00:49

Часовой пояс: GMT



Вы не можете начинать темы
Вы не можете отвечать на сообщения
Вы не можете редактировать свои сообщения
Вы не можете удалять свои сообщения
Вы не можете голосовать в опросах
Вы не можете прикреплять файлы к сообщениям
Вы не можете скачивать файлы