Три звезды / Серии: 1-30 из 30 (Мичислав Юзовский, Сергей Лесогоров) [2014, Мелодрама, DVB]

 
Автор Сообщение

sergej644 ®

Пол:

Стаж: 4 года 11 месяцев

Сообщений: 6040

Откуда: Soviet Union



Награды: Нет

Торрент-статистика

Создавать темы 15-Авг-2014 21:04

[Цитировать]

--Три звезды

Год выпуска: 2014
Производство: DixiMedia по заказу НТВ
Жанр: Мелодрама
Продолжительность: ~0:45:00 серия
Субтитры: Украинские (вшитые)
Режиссёр: Мичислав Юзовский, Сергей Лесогоров
В ролях: Анна Данькова, Иван Колесников, Ярослав Леонов, Максим Туранцев, Владимир Тебенко, Павел Мисаилов, Александр Лырчиков, Всеволод Макаров, Алла Подчуфарова, Лада Чернова, Алина Стеблюк, Анна Кузина (II), Юлия Юрченко, Полина Уварова, Евгений Дакот, Анастасия Немец, Дария Тюрина, Сергей Николаев (VII), Александр Пугачёв (II), Ирина Бероева, Денис Варенов, Ника Балина, Надежда Иванко, Марина Дианова, Денис Давыдов, Евграф Прохоров, Юлия Минаковская, Елена Панджариди, Светлана Фролова (II), Игорь Верста, Алина Хруник, Артем Лысков, Артём Маркарьян, Екатерина Мадалинская, Александра Булычёва
Описание: Брат и сестра Белянкины с детства недолюбливали друг друга. Они росли в неполной семье, вечно и во всем соревновались и вечно были всем недовольны. Сейчас Славе 31 год, он образованный и неглупый, однако, не найдя своего места под солнцем, живет одним днём. Марина, старшая сестра, страдает комплексом «ранней звезды». В 20 лет она была ведущей на одном из первых музыкальных каналов, ее узнавала вся страна. Сейчас ей 36, на телевидении лет 15 она уже никому не нужна. Марина работает где придется, продолжая мечтать о голубом экране.
Вдруг Белянкины получают известие о трагической гибели отца, который бросил их много лет назад. Так как с ним в аварии погибла и его новая жена, а завещания не было, Слава и Марина оказываются единственными наследниками и получают под своё управление небольшую гостиницу в одном из районов Москвы.
Первое желание брата и сестры - продать бизнес и разделить деньги - тут же разбивается вдребезги, так как выясняется, что есть и третий наследник. У их отца остался ещё один сын от нового брака, 15-ти летний паренек по имени Макс. Мало того что Слава и Марина должны управлять гостиницей до того момента, пока Максу не исполнится 18 лет, они ещё и должны стать опекунами мальчика. И каким-то загадочным образом три звезды этой гостиницы объединяют судьбы троих членов одной, давно разрушенной семьи.

Качество: DVB
Формат: MPEG -TS
Видео кодек: MPEG2
Аудио кодек: MPEG1
Видео: MPEG2 Video 768х576 @ 720x576 (4:3) 25.00fps ~4463 Kbps (0.43 bit/pixel)
Аудио: MPEG Audio 48000Hz 1 channels 192 Кбит/сек
Сторонней рекламы нет!

MediaInfo

Общее
Полное имя                       : H:\Три звезды DVB (1-20)\Три звезды 01_серия_DVB_by_Серый1779.mpg
Формат                           : MPEG-PS
Размер файла                     : 1,50 Гбайт
Продолжительность                : 45 м.
Общий поток                      : 4749 Кбит/сек
Видео
Идентификатор                    : 224 (0xE0)
Формат                           : MPEG Video
Версия формата                   : Version 2
Профиль формата                  : Main@Main
Параметр BVOP формата            : Да
Параметр матрицы формата         : По умолчанию
Параметры GOP формата            : M=1, N=3
Продолжительность                : 45 м.
Вид битрейта                     : Переменный
Битрейт                          : 4463 Кбит/сек
Номинальный битрейт              : 15,0 Мбит/сек
Ширина                           : 720 пикс.
Высота                           : 576 пикс.
Соотношение сторон               : 4:3
Частота кадров                   : 25,000 кадр/сек
Стандарт вещания                 : PAL
Цветовое пространство            : YUV
Подвыборка цветности             : 4:2:0
Битовая глубина                  : 8 бит
Тип развёртки                    : Чересстрочная
Порядок развёртки                : Верхнее поле первое
Метод сжатия                     : С потерями
Бит/(Пиксели*Кадры)              : 0.430
Размер потока                    : 1,41 Гбайт (94%)
Аудио
Идентификатор                    : 192 (0xC0)
Формат                           : MPEG Audio
Версия формата                   : Version 1
Профиль формата                  : Layer 2
Продолжительность                : 45 м.
Вид битрейта                     : Постоянный
Битрейт                          : 192 Кбит/сек
Каналы                           : 1 канал
Частота                          : 48,0 КГц
Метод сжатия                     : С потерями
Размер потока                    : 62,2 Мбайт (4%)
Запись и монтаж: Серый1779
Огромное спасибо _simka_ за запись 11-ой - 22-ой серии!
Раздача группы:

Скриншоты

--
[Профиль] [ЛС]
Кто просматривает тему:

Показать сообщения:    

Текущее время: Сегодня 10:51

Часовой пояс: GMT



Вы не можете начинать темы
Вы не можете отвечать на сообщения
Вы не можете редактировать свои сообщения
Вы не можете удалять свои сообщения
Вы не можете голосовать в опросах
Вы не можете прикреплять файлы к сообщениям
Вы не можете скачивать файлы