Три дня Кондора / Three Days of the Condor (Сидни Поллак / Sydney Pollack) [1975, США, Триллер, мелодрама, драма, BDRip 720p] MVO (R5) + Dub (Дубляж СССР) + АО.Ю.Сербин + АО.Ю.Живов + Sub Rus + Original Eng

 
Автор Сообщение

sergej644 ®

Пол:

Стаж: 4 года 11 месяцев

Сообщений: 6042

Откуда: Soviet Union



Награды: Нет

Торрент-статистика

Создавать темы 21-Фев-2015 20:24

[Цитировать]

Три дня КондораThree Days of the Condor«His code name is Condor. In the next twenty-four hours everyone he trusts will try to kill him»- Страна: США
Студия: Paramount Pictures
Жанр: Триллер, мелодрама, драма
Год выпуска: 1975
Продолжительность: 01:57:22
Перевод: Профессиональный (многоголосый закадровый) R5
Перевод 2: Профессиональный (дублированный) Дубляж СССР
Перевод 3: Авторский (одноголосый закадровый) Ю.Сербин
Перевод 4: Авторский (одноголосый закадровый) Ю.Живов
Cубтитры: русские, английские,английские(SDH), французские
Оригинальная аудиодорожка: английский
Режиссер: Сидни Поллак / Sydney Pollack
В ролях: Роберт Редфорд, Фэй Данауэй, Клифф Робертсон, Макс фон Сюдов, Джон Хаусмен, Эддисон Пауэлл, Walter McGinn, Тина Чен, Майкл Кэйн, Дон МакГенри
Описание: Работающий в одном из замаскированных отделов ЦРУ в Нью-Йорке парень по имени Джо Тэрнер занимается анализом бульварно-детективной литературы, в которой выискивает интересующие Ведомство «оригинальные приёмы».
В последний предрождественский рабочий день Тэрнер, вернувшись после обеденного перерыва с ужасом обнаруживает в конторе трупы своих 7-х коллег. Он звонит по «аварийному» телефону в дежурную часть ЦРУ. Начальство назначает ему встречу. Но… она оказывается ловушкой. Тэрнеру остаётся лишь одно: на свой страх и риск выяснить причины устроенной на него охоты.
| IMDb |
За авторские дорожки спасибо zastrelisya669.
Тип релиза: BDRip 720p
Контейнер: MKV
Видео: AVC, 1280x546 (2.35:1), 10927 kbps, 23,976 fps, 0,652 bpp
Аудио: русский / DTS / 5.1 / 48 kHz / 755 kbps / 24 bit |Многоголосый закадровый, R5|
Аудио 2: русский / AC3 / 2.0 / 48 kHz / 384 kbps / 16 bit |Дубляж СССР|
Аудио 3: русский / AC3 / 2.0 / 48 kHz / 192 kbps / 16 bit |Авторский (одноголосый закадровый) Ю.Сербин|
Аудио 4: русский / AC3 / 2.0 / 48 kHz / 192 kbps / 16 bit |Авторский (одноголосый закадровый) Ю.Живов|
Аудио 5: английский / AC3 / 5.1 / 48 kHz / 640 kbps / 16 bit
Формат субтитров: softsub (SRT)

x264

x264 [info]: frame I:1265  Avg QP:17.68  size:125955
x264 [info]: frame P:26850 Avg QP:18.86  size: 81152
x264 [info]: frame B:140748 Avg QP:20.27  size: 53337
x264 [info]: consecutive B-frames:  1.0%  0.5%  1.4%  7.1%  9.0% 43.0%  9.8%  3.2%  8.6%  3.6%  5.9%  4.5%  2.6%

MediaInfo

General
Unique ID                                : 202352706092372182988729916430432076563 (0x983BB6AE6E633289803486BC6F500313)
Complete name                            : F:\Torrent\Three.Days.of.the.Condor.1975.720p.BDRip.4xRus.Eng.HDCLUB-SbR .mkv
Format                                   : Matroska
Format version                           : Version 4 / Version 2
File size                                : 10.9 GiB
Duration                                 : 1h 57mn
Overall bit rate                         : 13.3 Mbps
Encoded date                             : UTC 2015-01-13 05:42:33
Writing application                      : mkvmerge v7.5.0 ('Glass Culture') 64bit built on Jan  4 2015 16:48:44
Writing library                          : libebml v1.3.1 + libmatroska v1.4.2
Attachements                             : cover.jpg
Video
ID                                       : 1
Format                                   : AVC
Format/Info                              : Advanced Video Codec
Format profile                           : High@L4.1
Format settings, CABAC                   : Yes
Format settings, ReFrames                : 11 frames
Codec ID                                 : V_MPEG4/ISO/AVC
Duration                                 : 1h 57mn
Bit rate                                 : 10.9 Mbps
Width                                    : 1 280 pixels
Height                                   : 546 pixels
Display aspect ratio                     : 2.35:1
Frame rate mode                          : Constant
Frame rate                               : 23.976 fps
Color space                              : YUV
Chroma subsampling                       : 4:2:0
Bit depth                                : 8 bits
Scan type                                : Progressive
Bits/(Pixel*Frame)                       : 0.652
Stream size                              : 8.95 GiB (82%)
Writing library                          : x264 core 144 r2525kMod 40bb568
Encoding settings                        : cabac=1 / ref=11 / deblock=1:-3:-3 / analyse=0x3:0x133 / me=esa / subme=10 / psy=1 / fade_compensate=0.00 / psy_rd=0.90:0.05 / mixed_ref=1 / me_range=24 / chroma_me=1 / trellis=2 / 8x8dct=1 / cqm=0 / deadzone=21,11 / fast_pskip=0 / chroma_qp_offset=-3 / threads=6 / lookahead_threads=1 / sliced_threads=0 / nr=0 / decimate=1 / interlaced=0 / bluray_compat=0 / constrained_intra=0 / fgo=0 / bframes=12 / b_pyramid=2 / b_adapt=2 / b_bias=0 / direct=3 / weightb=1 / open_gop=0 / weightp=2 / keyint=250 / keyint_min=23 / scenecut=40 / intra_refresh=0 / rc_lookahead=60 / rc=crf / mbtree=0 / crf=17.5000 / qcomp=0.65 / qpmin=0 / qpmax=69 / qpstep=4 / vbv_maxrate=62500 / vbv_bufsize=78125 / crf_max=0.0 / nal_hrd=none / filler=0 / ip_ratio=1.30 / pb_ratio=1.20 / aq=1:0.80
Language                                 : English
Default                                  : Yes
Forced                                   : No
Matrix coefficients                      : BT.709
Audio #1
ID                                       : 2
Format                                   : DTS
Format/Info                              : Digital Theater Systems
Mode                                     : 16
Format settings, Endianness              : Big
Codec ID                                 : A_DTS
Duration                                 : 1h 57mn
Bit rate mode                            : Constant
Bit rate                                 : 755 Kbps
Channel(s)                               : 6 channels
Channel positions                        : Front: L C R, Side: L R, LFE
Sampling rate                            : 48.0 KHz
Bit depth                                : 24 bits
Compression mode                         : Lossy
Stream size                              : 633 MiB (6%)
Title                                    : Многоголосый закадровый, R5
Language                                 : Russian
Default                                  : Yes
Forced                                   : No
Audio #2
ID                                       : 3
Format                                   : AC-3
Format/Info                              : Audio Coding 3
Format profile                           : Dolby Digital
Mode extension                           : CM (complete main)
Format settings, Endianness              : Big
Codec ID                                 : A_AC3
Duration                                 : 1h 57mn
Bit rate mode                            : Constant
Bit rate                                 : 384 Kbps
Channel(s)                               : 2 channels
Channel positions                        : Front: L R
Sampling rate                            : 48.0 KHz
Bit depth                                : 16 bits
Compression mode                         : Lossy
Stream size                              : 322 MiB (3%)
Title                                    : Советский Дубляж
Language                                 : Russian
Default                                  : No
Forced                                   : No
Audio #3
ID                                       : 4
Format                                   : AC-3
Format/Info                              : Audio Coding 3
Mode extension                           : CM (complete main)
Format settings, Endianness              : Big
Codec ID                                 : A_AC3
Duration                                 : 1h 57mn
Bit rate mode                            : Constant
Bit rate                                 : 192 Kbps
Channel(s)                               : 2 channels
Channel positions                        : Front: L R
Sampling rate                            : 48.0 KHz
Bit depth                                : 16 bits
Compression mode                         : Lossy
Stream size                              : 161 MiB (1%)
Title                                    : Ю.Сербин
Language                                 : Russian
Default                                  : No
Forced                                   : No
Audio #4
ID                                       : 5
Format                                   : AC-3
Format/Info                              : Audio Coding 3
Mode extension                           : CM (complete main)
Format settings, Endianness              : Big
Codec ID                                 : A_AC3
Duration                                 : 1h 57mn
Bit rate mode                            : Constant
Bit rate                                 : 192 Kbps
Channel(s)                               : 2 channels
Channel positions                        : Front: L R
Sampling rate                            : 48.0 KHz
Bit depth                                : 16 bits
Compression mode                         : Lossy
Stream size                              : 161 MiB (1%)
Title                                    : Ю.Живов
Language                                 : Russian
Default                                  : No
Forced                                   : No
Audio #5
ID                                       : 6
Format                                   : AC-3
Format/Info                              : Audio Coding 3
Mode extension                           : CM (complete main)
Format settings, Endianness              : Big
Codec ID                                 : A_AC3
Duration                                 : 1h 57mn
Bit rate mode                            : Constant
Bit rate                                 : 640 Kbps
Channel(s)                               : 6 channels
Channel positions                        : Front: L C R, Side: L R, LFE
Sampling rate                            : 48.0 KHz
Bit depth                                : 16 bits
Compression mode                         : Lossy
Stream size                              : 537 MiB (5%)
Language                                 : English
Default                                  : No
Forced                                   : No
Text #1
ID                                       : 7
Format                                   : UTF-8
Codec ID                                 : S_TEXT/UTF8
Codec ID/Info                            : UTF-8 Plain Text
Language                                 : Russian
Default                                  : No
Forced                                   : No
Text #2
ID                                       : 8
Format                                   : UTF-8
Codec ID                                 : S_TEXT/UTF8
Codec ID/Info                            : UTF-8 Plain Text
Language                                 : English
Default                                  : No
Forced                                   : No
Text #3
ID                                       : 9
Format                                   : UTF-8
Codec ID                                 : S_TEXT/UTF8
Codec ID/Info                            : UTF-8 Plain Text
Title                                    : SDH
Language                                 : English
Default                                  : No
Forced                                   : No
Text #4
ID                                       : 10
Format                                   : UTF-8
Codec ID                                 : S_TEXT/UTF8
Codec ID/Info                            : UTF-8 Plain Text
Language                                 : French
Default                                  : No
Forced                                   : No
Menu
00:00:00.000                             : en:00:00:00.000
00:09:20.101                             : en:00:09:20.101
00:18:48.836                             : en:00:18:48.836
00:27:33.527                             : en:00:27:33.527
00:33:14.784                             : en:00:33:14.784
00:40:34.974                             : en:00:40:34.974
00:52:20.304                             : en:00:52:20.304
01:00:00.180                             : en:01:00:00.180
01:09:32.126                             : en:01:09:32.126
01:19:38.899                             : en:01:19:38.899
01:25:18.572                             : en:01:25:18.572
01:28:43.985                             : en:01:28:43.985
01:36:25.822                             : en:01:36:25.822
01:41:16.404                             : en:01:41:16.404
01:45:46.924                             : en:01:45:46.924
01:51:02.072                             : en:01:51:02.072
--
[Профиль] [ЛС]
Кто просматривает тему:

Показать сообщения:    

Текущее время: Сегодня 08:57

Часовой пояс: GMT



Вы не можете начинать темы
Вы не можете отвечать на сообщения
Вы не можете редактировать свои сообщения
Вы не можете удалять свои сообщения
Вы не можете голосовать в опросах
Вы не можете прикреплять файлы к сообщениям
Вы не можете скачивать файлы