Три девятки / Triple 9 (2016) BDRip 720p от NNNB | D, P, A

 
Автор Сообщение

Russian Mafia ®

Пол:

Стаж: 1 год 8 месяцев

Сообщений: 4257



Награды: 10 (Подробнее)

За внесенный вклад в развитие сайта (Количество: 1) Mega Seeder 3 (Количество: 1) Mega Seeder 1 (Количество: 1)
Торрент-статистика

Создавать темы 10-Окт-2016 08:37

[Цитировать]

Три девятки / Triple 9
«Законы улицы не делятся на черные и белые»
Русское название: Три девятки
Оригинальное название: Triple 9
Год выпуска: 2016
Жанр: криминал, драма, триллер
Выпущено: США
Режиссер: Джон Хиллкоут
В ролях: Чиветель Эджиофор , Кейси Аффлек , Энтони Маки , Вуди Харрельсон , Кейт Уинслет , Аарон Пол , Клифтон Коллинз мл. , Норман Ридус , Галь Гадот , Тереза Палмер , Майкл Кеннет Уильямс , Мишель Энг
Перевод: Дублированный, Профессиональный многоголосый, Авторский одноголосый

Сюжет фильма:
Банда преступников и коррумпированных копов планирует убить полицейского, чтобы провернуть ограбление на другом конце города.

Качество: BDRip 720p
Формат: AVC (библиотека кодирования x.264)
Контейнер (Расширение): MKV
Видео: 1280x536, 10568 Кбит/сек, 23,976 кадр/сек, 0,642 Бит/[Пиксели*Кадры]
Аудио №1: русский / AC3 / 5.1 / 48 kHz / 384 kbps / |Дублированный, iTunes|
Аудио №2: русский / AC3 / 5.1 / 48 kHz / 640 kbps / |Профессиональный многоголосый, Переулок Переводмана|
Аудио №3: русский / AC3 / 5.1 / 48 kHz / 640 kbps / |Авторский одноголосый, Юрий Немахов|
Аудио №4: английский / AC3 / 5.1 / 48 kHz / 640 kbps /
Субтитры: русские, английские (SDH), английские
Навигация по главам(Чаптеры): есть
Продолжительность: 01:55:45
Видеоряд: VietHDРелиз от: Сообщество: ***За перевод Ю.Немахова спасибо форуму E180
***За Многоголосый перевод спасибо переулку Переводмана

MediaInfo

Format : Matroska
Format version : Version 2
File size : 10.6 GiB
Duration : 1 h 55 min
Overall bit rate : 13.1 Mb/s
Movie name : Triple 9.2016.BDRip.720p.[denis100]
Encoded date : UTC 2016-10-10 06:52:17
Writing application : mkvmerge v5.8.0 ('No Sleep / Pillow') built on Sep 2 2012 15:37:04
Writing library : libebml v1.2.3 + libmatroska v1.3.0
Video
ID : 1
Format : AVC
Format/Info : Advanced Video Codec
Format profile : High@L4.1
Format settings, CABAC : Yes
Format settings, ReFrames : 12 frames
Codec ID : V_MPEG4/ISO/AVC
Duration : 1 h 55 min
Bit rate : 10.6 Mb/s
Width : 1 280 pixels
Height : 536 pixels
Display aspect ratio : 2.40:1
Frame rate mode : Constant
Frame rate : 23.976 (24000/1001) FPS
Color space : YUV
Chroma subsampling : 4:2:0
Bit depth : 8 bits
Scan type : Progressive
Bits/(Pixel*Frame) : 0.642
Stream size : 8.55 GiB (80%)
Title : Triple 9.2016.BDRip.720p.[denis100]
Writing library : x264 core 148 r2665kMod a01e339
Encoding settings : cabac=1 / ref=12 / deblock=1:-3:-3 / analyse=0x3:0x133 / me=umh / subme=10 / psy=1 / fade_compensate=0.00 / psy_rd=1.10:0.00 / mixed_ref=1 / me_range=24 / chroma_me=1 / trellis=2 / 8x8dct=1 / cqm=0 / deadzone=21,11 / fast_pskip=0 / chroma_qp_offset=-2 / threads=12 / lookahead_threads=3 / sliced_threads=0 / nr=0 / decimate=0 / interlaced=0 / bluray_compat=0 / constrained_intra=0 / fgo=0 / bframes=10 / b_pyramid=2 / b_adapt=2 / b_bias=0 / direct=3 / weightb=1 / open_gop=0 / weightp=2 / keyint=250 / keyint_min=23 / scenecut=40 / intra_refresh=0 / rc_lookahead=60 / rc=crf / mbtree=0 / crf=18.0000 / qcomp=0.70 / qpmin=0 / qpmax=69 / qpstep=4 / vbv_maxrate=62500 / vbv_bufsize=78125 / crf_max=0.0 / nal_hrd=none / filler=0 / ip_ratio=1.30 / pb_ratio=1.20 / aq=3:0.65 / zones=31,607,b=1.4/790,1318,b=1.4/2302,2398,b=1.5/14405,15670,b=1.4/17134,17278,b=1.5/17566,17710,b=1.4/60970,61594,b=1.5/71177,73577,b=1.4/76001,78617,b=1.5/80153,80729,b=1.4/98835,99219,b=1.4/100035,100083,b=1.4/100155,100203,b=1.5/101187,101331,b=1.4/101667,101787,b=1.5/101883,101955,b=1.4/102195,102315,b=1.6/107139,107451,b=1.4/111311,111479,b=1.5/113952,114480,b=1.4/119538,119960,b=1.4/120066,121074,b=1.5/125884,126208,b=1.6/126209,126809,b=1.5
Language : English
Default : Yes
Forced : No
Color range : Limited
Matrix coefficients : BT.709
Audio #1
ID : 2
Format : AC-3
Format/Info : Audio Coding 3
Mode extension : CM (complete main)
Format settings, Endianness : Big
Codec ID : A_AC3
Duration : 1 h 55 min
Bit rate mode : Constant
Bit rate : 384 kb/s
Channel(s) : 6 channels
Channel positions : Front: L C R, Side: L R, LFE
Sampling rate : 48.0 kHz
Frame rate : 31.250 FPS (1536 spf)
Compression mode : Lossy
Stream size : 318 MiB (3%)
Title : Дублированный, iTunes
Language : Russian
Default : No
Forced : No
Audio #2
ID : 3
Format : AC-3
Format/Info : Audio Coding 3
Mode extension : CM (complete main)
Format settings, Endianness : Big
Codec ID : A_AC3
Duration : 1 h 55 min
Bit rate mode : Constant
Bit rate : 640 kb/s
Channel(s) : 6 channels
Channel positions : Front: L C R, Side: L R, LFE
Sampling rate : 48.0 kHz
Frame rate : 31.250 FPS (1536 spf)
Compression mode : Lossy
Stream size : 530 MiB (5%)
Title : MVO, Переулок Переводмана
Language : Russian
Default : No
Forced : No
Audio #3
ID : 4
Format : AC-3
Format/Info : Audio Coding 3
Mode extension : CM (complete main)
Format settings, Endianness : Big
Codec ID : A_AC3
Duration : 1 h 55 min
Bit rate mode : Constant
Bit rate : 640 kb/s
Channel(s) : 6 channels
Channel positions : Front: L C R, Side: L R, LFE
Sampling rate : 48.0 kHz
Frame rate : 31.250 FPS (1536 spf)
Compression mode : Lossy
Stream size : 530 MiB (5%)
Title : AVO, Юрий Немахов
Language : Russian
Default : No
Forced : No
Audio #4
ID : 5
Format : AC-3
Format/Info : Audio Coding 3
Mode extension : CM (complete main)
Format settings, Endianness : Big
Codec ID : A_AC3
Duration : 1 h 55 min
Bit rate mode : Constant
Bit rate : 640 kb/s
Channel(s) : 6 channels
Channel positions : Front: L C R, Side: L R, LFE
Sampling rate : 48.0 kHz
Frame rate : 31.250 FPS (1536 spf)
Compression mode : Lossy
Stream size : 530 MiB (5%)
Language : English
Default : No
Forced : No
Text #1
ID : 6
Format : UTF-8
Codec ID : S_TEXT/UTF8
Codec ID/Info : UTF-8 Plain Text
Language : Russian
Default : No
Forced : No
Text #2
ID : 7
Format : UTF-8
Codec ID : S_TEXT/UTF8
Codec ID/Info : UTF-8 Plain Text
Title : SDH
Language : English
Default : No
Forced : No
Text #3
ID : 8
Format : UTF-8
Codec ID : S_TEXT/UTF8
Codec ID/Info : UTF-8 Plain Text
Language : English
Default : No
Forced : No
Menu
00:00:00.000 : en:00:00:00.000
00:05:34.459 : en:00:05:34.459
00:12:18.029 : en:00:12:18.029
00:15:57.039 : en:00:15:57.039
00:20:25.724 : en:00:20:25.724
00:28:39.468 : en:00:28:39.468
00:34:28.942 : en:00:34:28.942
00:39:29.576 : en:00:39:29.576
00:44:32.879 : en:00:44:32.879
00:48:10.888 : en:00:48:10.888
00:56:32.639 : en:00:56:32.639
01:02:03.178 : en:01:02:03.178
01:07:03.019 : en:01:07:03.019
01:12:12.620 : en:01:12:12.620
01:16:22.495 : en:01:16:22.495
01:21:41.647 : en:01:21:41.647
01:26:30.102 : en:01:26:30.102
01:32:35.675 : en:01:32:35.675
01:41:34.255 : en:01:41:34.255
01:50:13.315 : en:01:50:13.315

x264

x264 [inf0]: frame I:1029 Avg QP:15.96 size:134760
x264 [inf0]: frame P:31507 Avg QP:16.98 size: 76970
x264 [inf0]: frame B:134000 Avg QP:18.61 size: 51019

Скриншоты

[Профиль] [ЛС]
Кто просматривает тему:

Показать сообщения:    

Текущее время: Сегодня 16:23

Часовой пояс: GMT



Вы не можете начинать темы
Вы не можете отвечать на сообщения
Вы не можете редактировать свои сообщения
Вы не можете удалять свои сообщения
Вы не можете голосовать в опросах
Вы не можете прикреплять файлы к сообщениям
Вы не можете скачивать файлы