Три девятки / Triple 9 (2016) HDRip | P

 
Автор Сообщение

BOSS ®

Пол:

Стаж: 2 года 1 месяц

Сообщений: 3719

Откуда: ODESSA



Награды: 20 (Подробнее)

Top Seeder 4 (Количество: 1) Mega Releaser 2 (Количество: 1) Top Releaser 2 (Количество: 1)
Торрент-статистика

Создавать темы 13-Авг-2016 16:09

[Цитировать]

Производство: США / Open Road Films, Worldview Entertainment, Sierra Pictures
Жанр: Боевик, Криминал, Драма
Продолжительность: 01:55:45
Перевод: Профессиональный многоголосый (Переулок Переводмана)
ВНИМАНИЕ! НЕЦЕНЗУРНАЯ ЛЕКСИКА
Субтитры: Отсутствуют
Режиссер: Джон Хиллкоут
Актеры: Вуди Харрельсон, Норман Ридус, Кейт Уинслет, Кейси Аффлек, Чиуител Эджиофор, Галь Гадот, Аарон Пол, Тереза Палмер, Энтони Мэкки, Клифтон Коллинз-мл., Мишель Анг
Описание:
Сюжет разворачивается вокруг компании коррумпированных копов, решившихся на крупное ограбление. Но ради того, чтобы выйти сухими из воды, им необходимо убить кого-то из своих.
Название «999» — соответственно — восходит к коду опасности американских полицейских.- -Качество видео: HDRip
Видео: 720x304 (2.37:1), 23.976 fps, XviD build 73 ~1347 kbps, 0.26 bit/pixel
Аудио: AC-3, 48.0 KHz, 6 ch, 448 Kbps (Russian)

Mediainfo:

Формат : AVI
Формат/Информация : Audio Video Interleave
Размер файла : 1,46 Гбайт
Продолжительность : 1 ч. 55 м.
Общий поток : 1805 Кбит/сек
Программа кодирования : VirtualDubMod 1.5.10.3 | www.virtualdub-fr.org || (build 2550/release)
Библиотека кодирования : VirtualDubMod build 2550/release
Видео
Идентификатор : 0
Формат : MPEG-4 Visual
Профиль формата : Advanced Simple@L5
Параметр BVOP формата : 1
Параметр QPel формата : Нет
Параметр GMC формата : Без точки перехода
Параметр матрицы формата : Выборочная
Идентификатор кодека : XVID
Идентификатор кодека/Подсказка : XviD
Продолжительность : 1 ч. 55 м.
Битрейт : 1348 Кбит/сек
Ширина : 720 пикселей
Высота : 304 пикселя
Соотношение сторон : 2,35:1
Частота кадров : 23,976 кадра/сек
Цветовое пространство : YUV
Субдискретизация насыщенности : 4:2:0
Битовая глубина : 8 бит
Тип развёртки : Прогрессивная
Метод сжатия : С потерями
Бит/(Пиксели*Кадры) : 0.257
Размер потока : 1,09 Гбайт (75%)
Библиотека кодирования : XviD 73
Аудио
Идентификатор : 1
Формат : AC-3
Формат/Информация : Audio Coding 3
Расширение режима : CM (complete main)
Параметр Endianness формата : Big
Идентификатор кодека : 2000
Продолжительность : 1 ч. 55 м.
Вид битрейта : Постоянный
Битрейт : 448 Кбит/сек
Каналы : 6 каналов
Расположение каналов : Front: L C R, Side: L R, LFE
Частота : 48,0 КГц
Битовая глубина : 16 бит
Метод сжатия : С потерями
Размер потока : 371 Мбайт (25%)
Выравнивание : Разделение по промежуткам
Продолжительность промежутка : 42 мс. (1,00 видеокадр)
Время предзагрузки промежутка : 500 мс.

Доп.инфа

Перевод Михаила Чадова. Основные роли озвучивали: Евгений Гаевский (Майк), Дмитрий Есарев (Маркус), Антон Киреев (Рассел), Вячеслав Котов (Гейб), Алексей Матвеев (Крис), Михаил Чадов (Джеф), Михаил Яроцкий (Франко), Анна Тух (Елена), Анастасия Флигина (Ирина). Плюс, за каждым актёром по несколько второстепенных реплик. Итого 9 ГОЛОСОВ!!! Работа со звуком Переводман
Релиз доступен благодаря: ZeDOK, HaND, RafL, kokaino1987, Star Dog, Shrooms, ana2363, Ananerbe, sa1992, Start.Point, 7654, Старый, Lecter1975, hintoz, sancrew, napaHouk, Roy 33, dikii, shandorra, kidman644, J. Green, potroks, sivservik, nortonn, superbizho, red1905, Scaner, Ебозаврик, walledol, otputi, american_psycho, boldino, R.U., Record
Скриншоты:
[Профиль] [ЛС]
Кто просматривает тему:

Показать сообщения:    

Текущее время: Сегодня 22:43

Часовой пояс: GMT



Вы не можете начинать темы
Вы не можете отвечать на сообщения
Вы не можете редактировать свои сообщения
Вы не можете удалять свои сообщения
Вы не можете голосовать в опросах
Вы не можете прикреплять файлы к сообщениям
Вы не можете скачивать файлы