Трио в перьях / Richard the Stork (2017) WEB-DL 720p | iTunes

 
Автор Сообщение

BOSS ®

Пол:

Стаж: 3 года 2 месяца

Сообщений: 8560

Откуда: ODESSA



Награды: 22 (Подробнее)

Top Releaser 3 (Количество: 1) Top Seeder 2 (Количество: 1) Mega Releaser 2 (Количество: 1)
Торрент-статистика

Создавать темы 31-Июл-2017 10:53

[Цитировать]

Информация о фильме
Название: Трио в перьях
Оригинальное название: Richard the Stork
Год выхода: 2017
Жанр: мультфильм, приключения
Режиссер: Тоби Генкель, Реза Мемари
В ролях: Тильман Дёблер, Купер Келли Крамер, Шеннон Конли, Кристиан Гол, Николетт Кребиц, Марк Томпсон, Марко Эссер, Джейсон Гриффит, Маркус Офф, Эрика Шредер
Слоган: «Летим на Мадагаскар!»
О фильме: Воробей Ричард с рождения воспитывался аистами и считает себя одним из них. Но приходит время мигрировать на юг. Родители боятся, что Ричард не справится с перелетом, и оставляют его дома. Но воробей решает доказать всем, что он настоящий аист. Он сам отправляется в Африку. По дороге он заводит дружбу со странноватой совой и эксцентричным попугаем, мечтающим о большой сцене. Эта троица пускается в отчаянное путешествие на автобусе, поезде и круизном лайнере!

Страна: Германия, Бельгия, Люксембург, Норвегия / Den Siste Skilling, Knudsen & Streuber Medienmanufaktur, Mélusine Productions
Продолжительность: 01:24:03
Перевод: Профессиональный (полное дублирование) [iTunes]
Файл
Качество: WEB-DL 720p
Формат: MKV
Видео: AVC, 3422 Кбит/сек, 1280x688
Звук: AC3, 6 ch, 384 Кбит/сек
Субтитры: нет
Доп.информация: Сохранены оригинальные чаптеры (главы)

Релиз от:

MediaInfo:

Формат : Matroska
Версия формата : Version 4 / Version 2
Размер файла : 2,24 Гбайт
Продолжительность : 1 ч. 24 м.
Общий поток : 3808 Кбит/сек
Название фильма : Richard the Stork (2017) - Release for HDCLUB
Дата кодирования : UTC 2017-07-31 01:06:54
Программа кодирования : mkvmerge v13.0.0 ('The Juggler') 64bit
Библиотека кодирования : libebml v1.3.4 + libmatroska v1.4.5
Видео
Идентификатор : 1
Формат : AVC
Формат/Информация : Advanced Video Codec
Профиль формата : Main@L4.1
Параметр CABAC формата : Да
Параметр ReFrames формата : 8 кадров
Идентификатор кодека : V_MPEG4/ISO/AVC
Продолжительность : 1 ч. 24 м.
Битрейт : 3422 Кбит/сек
Ширина : 1280 пикселей
Высота : 688 пикселей
Соотношение сторон : 1,85:1
Режим частоты кадров : Постоянный
Частота кадров : 24,000 кадра/сек
Цветовое пространство : YUV
Субдискретизация насыщенности : 4:2:0
Битовая глубина : 8 бит
Тип развёртки : Прогрессивная
Бит/(Пиксели*Кадры) : 0.162
Размер потока : 2,01 Гбайт (90%)
Язык : English
Default : Да
Forced : Нет
Аудио
Идентификатор : 2
Формат : AC-3
Формат/Информация : Audio Coding 3
Расширение режима : CM (complete main)
Параметр Endianness формата : Big
Идентификатор кодека : A_AC3
Продолжительность : 1 ч. 24 м.
Вид битрейта : Постоянный
Битрейт : 384 Кбит/сек
Каналы : 6 каналов
Расположение каналов : Front: L C R, Side: L R, LFE
Частота : 48,0 КГц
Частота кадров : 31,250 кадров/сек (1536 spf)
Битовая глубина : 16 бит
Метод сжатия : С потерями
Размер потока : 231 Мбайт (10%)
Заголовок : iTunes
Язык : Russian
Default : Да
Forced : Нет
Меню
00:00:00.000 : en:1
00:12:17.750 : en:2
00:18:15.458 : en:3
00:23:07.123 : en:4
00:28:43.498 : en:5
00:33:45.163 : en:6
00:38:38.996 : en:7
00:43:28.121 : en:8
00:48:52.162 : en:9
00:55:03.995 : en:10
00:59:29.620 : en:11
01:04:24.036 : en:12
01:09:56.411 : en:13
01:15:01.661 : en:14
01:19:40.118 : en:15
[Профиль] [ЛС]
Кто просматривает тему:

Показать сообщения:    

Текущее время: Сегодня 13:02

Часовой пояс: GMT



Вы не можете начинать темы
Вы не можете отвечать на сообщения
Вы не можете редактировать свои сообщения
Вы не можете удалять свои сообщения
Вы не можете голосовать в опросах
Вы не можете прикреплять файлы к сообщениям
Вы не можете скачивать файлы