Тринадцатый этаж / The Thirteenth Floor (1999) BDRip 720p | D

 
Автор Сообщение

sergej644 ®

Пол:

Стаж: 4 года 11 месяцев

Сообщений: 6043

Откуда: Soviet Union



Награды: Нет

Торрент-статистика

Создавать темы 08-Фев-2015 12:05

[Цитировать]

Тринадцатый этаж / The Thirteenth Floor (1999) BDRip [720p] | ATV | D Название: Тринадцатый этаж
Оригинальное название: The Thirteenth Floor
Год выхода: 1999
Жанр: фантастика, триллер, детектив
Режиссер: Йозеф Руснак
В ролях: Крэйг Бирко, Гретхен Мол, Армин Мюллер-Шталь, Винсент Д’Онофрио, Деннис Хейсбёрт, Стивен Шуб, Джереми Робертс, Риф Хаттон, Леон Риппи, Джанет МакЛахлан
О фильме:
На тринадцатом этаже компьютерной корпорации была разработана совершенная модель виртуальной реальности, создание которой повлекло за собой цепь таинственных убийств. Разгадать загадку можно, лишь погрузившись в иное измерение, где может быть ответ на многие вопросы, а может быть - страшная нереальность...

Страна: США, Германия
Студия: Columbia/Sony
Продолжительность: 01:40:30
Перевод: Русский дублированный
Файл
Кодек: H.264
Качество: BDRip [720p]
Видео: 1280x534 (2.40:1), 6 800 Kbps, 23.976 fps
Звук:
1: АAС 2.0 150 kbps - Русский дублированный
2: АС3 5.1 640 kbps - Русский дублированный
3: АAС 2.0 150 kbps - Английский
4: АС3 5.1 640 kbps - Английский
Субтитры: Английский

iTunes Meta Tags

Sort Name: The Thirteenth Floor
XID: Apple:vendor_id:1999-1086
Content ID: 284571749
Copyright: © 1999 Columbia Pictures Industries, Inc. All Rights Reserved.
ScreenWriters: Йозеф Руснак, Равель Сентено-Родригес, Дэниэл Ф. Галуйе
Producers: Роланд Эммерих, Уте Эммерих, Марко Вебер
Director: Йозеф Руснак
Cast: Крэйг Бирко, Гретхен Мол, Армин Мюллер-Шталь, Винсент Д’Онофрио, Деннис Хейсбёрт, Стивен Шуб, Джереми Робертс, Риф Хаттон, Леон Риппи, Джанет МакЛахлан // Craig Bierko (Douglas Hall/John Ferguson/David), Armin Mueller-Stahl (Hannon Fuller/Grierson), ...
Rating: R
Long Deion: На тринадцатом этаже компьютерной корпорации была разработана совершенная модель виртуальной реальности, создание которой повлекло за собой цепь таинственных убийств. Разгадать загадку можно, лишь погрузившись в иное измерение, где может быть ответ на многие вопросы, а может быть - страшная нереальность...
Deion: На тринадцатом этаже компьютерной корпорации была разработана совершенная модель виртуальной реальности, создание которой повлекло за собой цепь таинственных убийств. Разгадать загадку можно, лишь погрузившись в иное измерение..
Release Date: 1999-10-05T07:00:00Z
Genre: Sci-Fi & Fantasy
Artist: Josef Rusnak
Name: Тринадцатый этаж
Comments: «Question reality. You can go there even though it doesn't exist»

MediaInfo

General
Complete name : C:CREATE264mod1outThe.Thirteenth.Floor.1999.BDRip.720p.D.rt.m4v
Format : MPEG-4
Codec ID : M4V
File size : 5.91 GiB
Duration : 1h 40mn
Overall bit rate mode : Variable
Overall bit rate : 8 421 Kbps
Movie name : Тринадцатый этаж
Performer : Josef Rusnak
Genre : Sci-Fi & Fantasy
ContentType : Short Film
Deion : На тринадцатом этаже компьютерной корпорации была разработана совершенная модель виртуальной реальности, создание которой повлекло за собой цепь таинственных убийств. Разгадать загадку можно, лишь погрузившись в иное измерение..
Recorded date : UTC 1999-10-05 07:00:00
Encoded date : UTC 2014-09-15 15:19:57
Tagged date : UTC 2014-09-15 15:43:17
Copyright : © 1999 Columbia Pictures Industries, Inc. All Rights Reserved.
Cover : Yes
Comment : «Question reality. You can go there even though it doesn't exist»
ContentRating : mpaa|R|400|
Title/Sort : The Thirteenth Floor
LongDeion : На тринадцатом этаже компьютерной корпорации была разработана совершенная модель виртуальной реальности, создание которой повлекло за собой цепь таинственных убийств. Разгадать загадку можно, лишь погрузившись в иное измерение, где может быть ответ на многие вопросы, а может быть - страшная нереальность...
HDVideo : Yes
AppleStoreCatalogID : 284571749
Vendor : Apple:vendor_id:1999-1086
Video
ID : 1
Format : AVC
Format/Info : Advanced Video Codec
Format profile : High@L4.1
Format settings, CABAC : Yes
Format settings, ReFrames : 9 frames
Codec ID : avc1
Codec ID/Info : Advanced Video Coding
Duration : 1h 40mn
Bit rate : 6 826 Kbps
Maximum bit rate : 15.5 Mbps
Width : 1 280 pixels
Height : 534 pixels
Display aspect ratio : 2.40:1
Original display aspect ratio : 2.40:1
Frame rate mode : Constant
Frame rate : 23.976 fps
Color space : YUV
Chroma subsampling : 4:2:0
Bit depth : 8 bits
Scan type : Progressive
Bits/(Pixel*Frame) : 0.417
Stream size : 4.79 GiB (81%)
Title : The Thirteenth Floor _1999_
Language : English
Encoded date : UTC 2014-09-15 15:19:57
Tagged date : UTC 2014-09-15 15:21:22
Matrix coefficients : BT.709
Audio #1
ID : 2
Format : AAC
Format/Info : Advanced Audio Codec
Format profile : LC
Codec ID : 40
Duration : 1h 40mn
Bit rate mode : Variable
Bit rate : 150 Kbps
Maximum bit rate : 179 Kbps
Channel(s) : 2 channels
Channel positions : Front: L R
Sampling rate : 48.0 KHz
Compression mode : Lossy
Stream size : 108 MiB (2%)
Title : DUB
Language : Russian
Encoded date : UTC 2014-09-15 15:21:00
Tagged date : UTC 2014-09-15 15:21:22
Audio #2
ID : 3
Format : AC-3
Format/Info : Audio Coding 3
Mode extension : CM (complete main)
Format settings, Endianness : Big
Codec ID : ac-3
Duration : 1h 40mn
Bit rate mode : Constant
Bit rate : 640 Kbps
Channel(s) : 6 channels
Channel positions : Front: L C R, Side: L R, LFE
Sampling rate : 48.0 KHz
Bit depth : 16 bits
Compression mode : Lossy
Stream size : 460 MiB (8%)
Title : DUB
Language : Russian
Encoded date : UTC 2014-09-15 15:21:06
Tagged date : UTC 2014-09-15 15:21:22
Audio #3
ID : 4
Format : AAC
Format/Info : Advanced Audio Codec
Format profile : LC
Codec ID : 40
Duration : 1h 40mn
Bit rate mode : Variable
Bit rate : 151 Kbps
Maximum bit rate : 183 Kbps
Channel(s) : 2 channels
Channel positions : Front: L R
Sampling rate : 48.0 KHz
Compression mode : Lossy
Stream size : 108 MiB (2%)
Title : Original
Language : English
Encoded date : UTC 2014-09-15 15:21:11
Tagged date : UTC 2014-09-15 15:21:22
Audio #4
ID : 5
Format : AC-3
Format/Info : Audio Coding 3
Mode extension : CM (complete main)
Format settings, Endianness : Big
Codec ID : ac-3
Duration : 1h 40mn
Bit rate mode : Constant
Bit rate : 640 Kbps
Channel(s) : 6 channels
Channel positions : Front: L C R, Side: L R, LFE
Sampling rate : 48.0 KHz
Bit depth : 16 bits
Compression mode : Lossy
Stream size : 460 MiB (8%)
Title : Original
Language : English
Encoded date : UTC 2014-09-15 15:21:17
Tagged date : UTC 2014-09-15 15:21:22
Text
ID : 6
Format : Timed Text
Muxing mode : sbtl
Codec ID : tx3g
Duration : 1h 36mn
Bit rate mode : Variable
Bit rate : 47 bps
Stream size : 33.4 KiB (0%)
Title : full
Language : English
Encoded date : UTC 2014-09-15 15:21:22
Tagged date : UTC 2014-09-15 15:21:22
Menu
ID : 7
Codec ID : text
Duration : 1h 40mn
Encoded date : UTC 2014-09-15 15:22:36
Tagged date : UTC 2014-09-15 15:22:36
Bit rate mode : CBR

x264

x264 [info]: started at Sun Sep 14 13:26:33 2014
x264 [info]: frame I:1032 Avg QP:15.27 size:112178
x264 [info]: frame P:27295 Avg QP:17.80 size: 53419
x264 [info]: frame B:116249 Avg QP:19.66 size: 30723
x264 [info]: consecutive B-frames: 1.7% 1.6% 4.1% 10.3% 17.3% 41.1% 9.2% 5.7% 3.2% 1.3% 1.2% 1.6% 0.9% 0.9%
x264 [info]: mb I I16..4: 18.6% 65.6% 15.9%
x264 [info]: mb P I16..4: 0.6% 8.1% 0.7% P16..4: 20.5% 39.3% 18.7% 7.7% 0.5% skip: 3.9%
x264 [info]: mb B I16..4: 0.1% 1.1% 0.1% B16..8: 36.3% 28.7% 9.0% direct:13.9% skip:10.9% L0:43.0% L1:43.3% BI:13.7%
x264 [info]: 8x8 transform intra:82.7% inter:37.9%
x264 [info]: coded y,uvDC,uvAC intra: 93.2% 93.6% 87.8% inter: 61.8% 53.2% 38.0%
x264 [info]: i16 v,h,dc,p: 39% 4% 21% 36%
x264 [info]: i8 v,h,dc,ddl,ddr,vr,hd,vl,hu: 16% 7% 12% 10% 13% 11% 10% 10% 11%
x264 [info]: i4 v,h,dc,ddl,ddr,vr,hd,vl,hu: 23% 6% 6% 9% 13% 13% 11% 10% 10%
x264 [info]: i8c dc,h,v,p: 27% 15% 13% 45%
x264 [info]: Weighted P-Frames: Y:7.3% UV:4.0%
x264 [info]: ref P L0: 45.5% 8.3% 17.3% 8.9% 6.4% 4.9% 3.9% 2.4% 2.1% 0.3% 0.0%
x264 [info]: ref B L0: 70.3% 12.7% 6.9% 3.5% 2.5% 1.9% 1.5% 0.6%
x264 [info]: ref B L1: 89.8% 10.2%
x264 [info]: kb/s:6826.34

Скриншоты

--
[Профиль] [ЛС]
Кто просматривает тему:

Форум Тема Автор Размер
Фильмы 2010 года 13 / Тринадцать / Тринадцатый / 13 (Гела Баблуани / Géla Babluani) [2010, США, триллер, драма, HDRip] AVO (Гаврилов) TorrentFilm 1.38 GB
Фильмы 2011 года Напортачили. Полный облом! / Тринадцатый этаж / Botched (Кит Райан / Kit Ryan) [2007, Германия, Ирландия, Великобритания, США, чёрная комедия, криминал, ужасы, WEB-DLRip] MVO + Original Eng TorrentFilm 1.71 GB
Фильмы 2012 года Тринадцатилетняя / Little Thirteen (2012) HDRip | A BOSS 1.46 GB
R.G.TorrentFilm Video Тринадцатилетняя / Little Thirteen (Кристиан Кландт / Christian Klandt) [2012, Германия, Драма, HDRip] AVO (Юрий Сербин) Один 777 703 MB
Фильмы (HD Rips | 720p, 1080p) Тринадцатый этаж / The Thirteenth Floor (1999) BDRip 1080p | D, P2, A sergej644 7.36 GB
Фильмы (HD Rips | 720p, 1080p) Тринадцатый этаж / The Thirteenth Floor (1999) BDRip 720p sergej644 2.91 GB
Фильмы (HD Rips | 720p, 1080p) Тринадцатый этаж / The Thirteenth Floor (1999) BDRip 720p | D, P2, A sergej644 5.25 GB
Фильмы (HD Rips | 720p, 1080p) Тринадцатый этаж / The Thirteenth Floor (1999) BDRip 720p от HELLYWOOD | D, P, P2, A Russian Mafia 5.76 GB
Показать сообщения:    

Текущее время: Сегодня 14:44

Часовой пояс: GMT



Вы не можете начинать темы
Вы не можете отвечать на сообщения
Вы не можете редактировать свои сообщения
Вы не можете удалять свои сообщения
Вы не можете голосовать в опросах
Вы не можете прикреплять файлы к сообщениям
Вы не можете скачивать файлы